<?xml version="1.0" standalone="no"?>
<!DOCTYPE svg PUBLIC "-//W3C//DTD SVG 1.1//EN" "http://www.w3.org/Graphics/SVG/1.1/DTD/svg11.dtd" >
<svg>
<metadata>
Created by FontForge 20110222 at Tue Feb 25 12:38:15 2014
 By Orthosie Webhosting
Digitized data (C) 2004 Agfa Monotype Corporation. All rights reserved. GE Inspira is a trademark of the General Electric Company.
</metadata>
<defs>
<font id="GEInspiraRegular" horiz-adv-x="1116" >
  <font-face 
    font-family="GEInspiraRegular"
    font-weight="400"
    font-stretch="normal"
    units-per-em="2048"
    panose-1="2 15 6 3 3 4 0 2 2 3"
    ascent="1638"
    descent="-410"
    x-height="1044"
    cap-height="1393"
    bbox="-373 -475 2337 1884"
    underline-thickness="115"
    underline-position="-207"
    unicode-range="U+0020-FB04"
  />
<missing-glyph horiz-adv-x="1024" 
d="M51 0v1536h922v-1536h-922zM179 128h666v1280h-666v-1280zM483 -525zM523 2029z" />
    <glyph glyph-name=".notdef" horiz-adv-x="1024" 
d="M51 0v1536h922v-1536h-922zM179 128h666v1280h-666v-1280zM483 -525zM523 2029z" />
    <glyph glyph-name=".null" horiz-adv-x="0" 
 />
    <glyph glyph-name="nonmarkingreturn" horiz-adv-x="485" 
 />
    <glyph glyph-name="space" unicode=" " horiz-adv-x="475" 
 />
    <glyph glyph-name="exclam" unicode="!" horiz-adv-x="514" 
d="M322 375q0 -64 -64 -64q-63 0 -63 64v966q0 64 63 64q64 0 64 -64v-966zM256 -20q-39 0 -65.5 26.5t-26.5 65.5t26.5 66.5t65.5 27.5q40 0 67 -27t27 -67q0 -39 -27 -65.5t-67 -26.5z" />
    <glyph glyph-name="quotedbl" unicode="&#x22;" horiz-adv-x="639" 
d="M526 1040q0 -63 -63 -63q-62 0 -62 63v303q0 62 62 62q63 0 63 -62v-303zM238 1040q0 -63 -64 -63q-61 0 -61 63v303q0 62 61 62q64 0 64 -62v-303z" />
    <glyph glyph-name="numbersign" unicode="#" horiz-adv-x="1196" 
d="M896 897l-63 -401h194q46 0 46 -40q0 -36 -16 -53.5t-48 -17.5h-195l-53 -332q-9 -59 -70 -59q-48 0 -48 44q0 7 1 15l53 332h-303l-53 -332q-9 -59 -70 -59q-48 0 -48 44q0 7 1 15l54 332h-193q-49 0 -49 39q0 36 16.5 54t50.5 18h191l63 401h-192q-49 0 -49 39
q0 36 16.5 54t50.5 18h193l53 340q9 57 68 57q50 0 50 -43q0 -6 -1 -14l-53 -340h303l53 340q9 57 68 57q51 0 51 -41q0 -7 -2 -16l-54 -340h195q46 0 46 -40q0 -36 -16 -53.5t-48 -17.5h-193zM474 897l-63 -401h305l63 401h-305z" />
    <glyph glyph-name="dollar" unicode="$" horiz-adv-x="1085" 
d="M596 -18v-127q0 -52 -51 -52q-49 0 -49 52v127q-92 8 -161 33t-130 64t-74.5 56.5t-13.5 42.5t17 44.5t42 19.5q13 0 21 -3t30 -20q136 -100 269 -115v551q-213 61 -290 150.5t-77 228.5q0 150 100.5 255t266.5 122v111q0 51 49 51q51 0 51 -51v-111q132 -8 238 -72.5
t106 -113.5q0 -25 -17 -46.5t-46 -21.5q-12 0 -20 4t-36 27q-104 83 -225 98v-522q207 -63 290 -155.5t83 -235.5q0 -165 -100 -270t-273 -121zM496 795v491q-113 -12 -175.5 -76.5t-62.5 -169.5q0 -86 51.5 -144t186.5 -101zM596 625v-521q115 14 179.5 86t64.5 183
q0 89 -57 150.5t-187 101.5z" />
    <glyph glyph-name="percent" unicode="%" horiz-adv-x="1720" 
d="M420 598q-136 0 -217.5 111.5t-81.5 296.5q0 203 85 305t214 102t214 -102t85 -305q0 -187 -82.5 -297.5t-216.5 -110.5zM420 1300q-94 0 -139 -80.5t-45 -213.5q0 -125 45.5 -209t138.5 -84q89 0 136.5 80.5t47.5 212.5q0 137 -45.5 215.5t-138.5 78.5zM1348 1319
l-895 -1307q-22 -32 -47 -32q-21 0 -39.5 15.5t-18.5 31.5q0 14 7 24l909 1329q23 33 47 33q20 0 38.5 -15t18.5 -32t-20 -47zM1300 -20q-136 0 -217.5 112.5t-81.5 294.5q0 208 87.5 308t211.5 100q125 0 212 -99.5t87 -308.5q0 -185 -81.5 -296t-217.5 -111zM1300 682
q-94 0 -139 -82.5t-45 -212.5q0 -126 46.5 -209.5t137.5 -83.5q90 0 137.5 81.5t47.5 211.5q0 140 -46.5 217.5t-138.5 77.5z" />
    <glyph glyph-name="ampersand" unicode="&#x26;" horiz-adv-x="1272" 
d="M941 393q26 77 39.5 161t13.5 175q0 64 63 64q60 0 60 -64q0 -119 -20.5 -224t-61.5 -196l230 -208q21 -20 21 -39q0 -23 -20.5 -45.5t-44.5 -22.5q-23 0 -51 21.5t-149 134.5l-52 47q-80 -109 -188 -163t-244 -54q-193 0 -313.5 116t-120.5 289q0 124 63.5 219
t182.5 146q-84 77 -120 149t-36 166q0 151 107.5 249.5t265.5 98.5q157 0 266.5 -64.5t109.5 -111.5q0 -25 -20.5 -47.5t-44.5 -22.5q-21 0 -45 23q-115 102 -256 102q-115 0 -185.5 -60.5t-70.5 -166.5q0 -73 37.5 -133.5t137 -150t446.5 -388.5zM881 274l-440 390
q-99 -28 -155 -103t-56 -174q0 -123 85 -205t226 -82q111 0 196 43.5t144 130.5z" />
    <glyph glyph-name="quotesingle" unicode="'" horiz-adv-x="350" 
d="M238 1040q0 -63 -64 -63q-61 0 -61 63v303q0 62 61 62q64 0 64 -62v-303z" />
    <glyph glyph-name="parenleft" unicode="(" horiz-adv-x="434" 
d="M338 -92q4 -10 4 -27q0 -15 -13.5 -29t-43.5 -14q-21 0 -41 17.5t-57 142.5t-66 314t-29 364t29 364t65.5 315t57 143.5t41.5 17.5q30 0 43.5 -14t13.5 -29q0 -18 -4 -29q-2 -6 -4 -15q-3 -9 -8 -20q-49 -134 -80 -344t-31 -387t30.5 -387.5t80.5 -345.5q9 -23 12 -37z
M283 1536z" />
    <glyph glyph-name="parenright" unicode=")" horiz-adv-x="434" 
d="M96 -92q3 16 13 37q52 147 81 354t29 379t-29 378.5t-81 352.5q-17 37 -17 64q0 15 14 29t44 14q24 0 45 -23t54.5 -145.5t63 -304t29.5 -367.5q0 -183 -28.5 -360.5t-62.5 -304t-55.5 -150t-45.5 -23.5q-30 0 -44 14t-14 29q0 17 4 27zM143 1536z" />
    <glyph glyph-name="asterisk" unicode="*" horiz-adv-x="885" 
d="M530 1010l149 -195q14 -19 14 -33q0 -26 -26 -45q-26 -14 -41 -14q-22 0 -41 27l-143 202l-136 -202q-19 -27 -41 -27q-16 0 -39 12q-28 20 -28 45q0 14 14 33l144 197l-233 77q-39 13 -39 50q0 21 14 42t39 21q12 0 27 -6l229 -86l-6 239q0 29 15.5 43.5t41.5 14.5
q30 0 45 -14.5t15 -42.5l-6 -240l231 86q16 6 27 6q22 0 36.5 -18.5t14.5 -44.5q0 -37 -39 -50z" />
    <glyph glyph-name="plus" unicode="+" horiz-adv-x="1085" 
d="M602 460v-365q0 -63 -59 -63q-60 0 -60 63v365h-360q-66 0 -66 57t66 57h360v365q0 64 60 64q59 0 59 -64v-365h361q65 0 65 -57t-65 -57h-361z" />
    <glyph glyph-name="comma" unicode="," horiz-adv-x="406" 
d="M166 -225q-49 0 -49 49q0 19 20 71q19 52 19 103l-9 108q0 74 64 74q46 0 64 -41t18 -110q0 -106 -43 -180t-84 -74zM223 -20z" />
    <glyph glyph-name="hyphen" unicode="-" horiz-adv-x="737" 
d="M584 485h-430q-64 0 -64 64q0 63 64 63h430q63 0 63 -63q0 -64 -63 -64z" />
    <glyph glyph-name="hyphen" unicode="&#x2010;" horiz-adv-x="737" 
d="M584 485h-430q-64 0 -64 64q0 63 64 63h430q63 0 63 -63q0 -64 -63 -64z" />
    <glyph glyph-name="period" unicode="." horiz-adv-x="406" 
d="M203 -20q-43 0 -72 29t-29 69q0 41 29 70.5t72 29.5q42 0 71 -29t29 -71q0 -39 -29.5 -68.5t-70.5 -29.5z" />
    <glyph glyph-name="slash" unicode="/" horiz-adv-x="721" 
d="M154 -41q-15 -43 -54 -43q-26 0 -48.5 14.5t-22.5 38.5q0 15 6 31l538 1581q15 45 52 45q18 0 44.5 -14.5t26.5 -44.5q0 -14 -4 -25zM613 1536z" />
    <glyph glyph-name="zero" unicode="0" horiz-adv-x="1085" 
d="M543 -20q-202 0 -327.5 185.5t-125.5 530.5q0 360 128 538.5t325 178.5q196 0 324 -178t128 -539q0 -345 -125.5 -530.5t-326.5 -185.5zM543 1292q-153 0 -239.5 -157.5t-86.5 -438.5q0 -269 88.5 -432.5t237.5 -163.5q145 0 235 159t90 437q0 288 -88.5 442t-236.5 154z
" />
    <glyph glyph-name="one" unicode="1" horiz-adv-x="1085" 
d="M541 1266l-255 -146q-11 -6 -32 -6q-25 0 -38 20.5t-13 43.5q0 34 45 59l270 154q39 22 74 22q76 0 76 -96v-1198h237q66 0 66 -60q0 -59 -66 -59h-622q-66 0 -66 59q0 60 66 60h258v1147z" />
    <glyph glyph-name="two" unicode="2" horiz-adv-x="1085" 
d="M315 119h541q64 0 64 -60q0 -59 -64 -59h-557q-73 0 -111 39t-38 108q0 138 100 276t301 277q161 109 213.5 186t52.5 165q0 112 -68 176.5t-186 64.5q-80 0 -140.5 -26.5t-144.5 -86.5q-16 -12 -36 -12q-22 0 -39 18.5t-17 43.5q0 52 121.5 118t255.5 66q179 0 280 -96
t101 -260q0 -122 -64 -221t-262 -238q-171 -122 -256.5 -232t-85.5 -208q0 -39 39 -39z" />
    <glyph glyph-name="three" unicode="3" horiz-adv-x="1085" 
d="M571 821q173 -24 260 -125t87 -278q0 -181 -124.5 -309.5t-326.5 -128.5q-130 0 -245.5 55t-115.5 106q0 26 18 46t44 20q18 0 49 -21q79 -49 132 -67.5t120 -18.5q146 0 234 90.5t88 223.5q0 151 -86.5 227t-258.5 76q-53 0 -53 47q0 25 43 82l301 377q11 14 11 26
q0 23 -23 23h-537q-61 0 -61 57q0 64 61 64h551q72 0 108 -29.5t36 -87.5q0 -40 -23 -79.5t-63 -92.5z" />
    <glyph glyph-name="four" unicode="4" horiz-adv-x="1085" 
d="M858 309v-252q0 -63 -63 -63q-64 0 -64 63v252h-512q-76 0 -113.5 29.5t-37.5 89.5q0 57 32 121l400 799q26 51 59 51h9q5 0 10 -2q51 -13 51 -58q0 -11 -6 -26l-414 -828q-10 -20 -10 -32q0 -25 41 -25h491v559q0 64 64 64q63 0 63 -64v-559h98q64 0 64 -59
q0 -60 -64 -60h-98z" />
    <glyph glyph-name="five" unicode="5" horiz-adv-x="1085" 
d="M317 823q91 33 187 33q204 0 322 -117.5t118 -326.5q0 -181 -126 -306.5t-316 -125.5q-145 0 -253 57.5t-108 103.5q0 28 19 47t47 19q16 0 45 -21q101 -86 250 -86q137 0 226 90t89 222q0 153 -83 238t-236 85q-83 0 -176 -30q-43 -15 -68 -15t-46.5 14.5t-21.5 51.5
q0 46 9 100l38 408q6 64 39.5 96.5t94.5 32.5h483q63 0 63 -64q0 -57 -63 -57h-467q-23 0 -23 -21z" />
    <glyph glyph-name="six" unicode="6" horiz-adv-x="1085" 
d="M252 659q44 96 135 151.5t199 55.5q183 0 292 -118t109 -308q0 -197 -120 -328.5t-308 -131.5q-213 0 -325.5 147t-112.5 432q0 427 146 640.5t438 213.5q48 0 108.5 -11t72 -31t11.5 -36q0 -26 -16.5 -46.5t-40.5 -20.5h-9q-3 0 -8 2q-71 22 -139 22q-193 0 -310 -162.5
t-122 -470.5zM573 745q-135 0 -222 -87t-87 -212q0 -150 77 -248t218 -98q136 0 218.5 95.5t82.5 242.5q0 142 -79 224.5t-208 82.5z" />
    <glyph glyph-name="seven" unicode="7" horiz-adv-x="1085" 
d="M334 55q0 181 158.5 550.5t322.5 596.5q16 26 16 39q0 31 -38 31h-576q-63 0 -63 59q0 62 63 62h629q56 0 90.5 -32t34.5 -85q0 -62 -62 -152q-166 -240 -297 -545t-151 -530q-4 -28 -20 -41.5t-44 -13.5q-25 0 -44 15t-19 46z" />
    <glyph glyph-name="eight" unicode="8" horiz-adv-x="1085" 
d="M356 743q-96 44 -152 124t-56 184q0 160 110.5 261t280.5 101q175 0 285.5 -100t110.5 -258q0 -103 -55.5 -184t-152.5 -126q125 -46 193.5 -139t68.5 -217q0 -182 -126.5 -295.5t-323.5 -113.5q-199 0 -322 110t-123 291q0 121 67.5 218t194.5 144zM539 1292
q-118 0 -192.5 -68.5t-74.5 -176.5q0 -105 71.5 -173.5t195.5 -68.5q123 0 195 68t72 174q0 109 -74 177t-193 68zM539 680q-147 0 -232.5 -83t-85.5 -206q0 -137 84.5 -214t233.5 -77q152 0 237.5 80.5t85.5 218.5q0 122 -86 201.5t-237 79.5z" />
    <glyph glyph-name="nine" unicode="9" horiz-adv-x="1085" 
d="M834 733q-51 -103 -139 -155t-197 -52q-181 0 -290.5 119t-109.5 309q0 201 118 330t310 129q215 0 327 -147.5t112 -431.5q0 -423 -147 -638.5t-437 -215.5q-86 0 -138.5 15t-52.5 60q0 29 17 48.5t39 19.5h9q4 0 9 -2q68 -21 137 -21q198 0 315.5 168.5t117.5 464.5z
M526 1292q-137 0 -219 -93.5t-82 -244.5q0 -136 76 -221.5t209 -85.5q141 0 225 90.5t84 208.5q0 150 -78 248t-215 98z" />
    <glyph glyph-name="colon" unicode=":" horiz-adv-x="406" 
d="M203 797q-39 0 -65.5 26.5t-26.5 65.5t26.5 65.5t65.5 26.5q40 0 67 -26t27 -66t-27 -66t-67 -26zM203 -20q-39 0 -65.5 26.5t-26.5 65.5t26.5 66.5t65.5 27.5q40 0 67 -27t27 -67q0 -39 -27 -65.5t-67 -26.5zM203 1044z" />
    <glyph glyph-name="semicolon" unicode=";" horiz-adv-x="406" 
d="M205 797q-39 0 -66.5 27t-27.5 65t27.5 65t66.5 27q40 0 66 -26t26 -66t-26 -66t-66 -26zM166 -225q-49 0 -49 49q0 19 20 71q19 52 19 103l-9 108q0 74 64 74q46 0 64 -41t18 -110q0 -106 -43 -180t-84 -74zM203 1044zM223 -20z" />
    <glyph glyph-name="less" unicode="&#x3c;" horiz-adv-x="1085" 
d="M264 518l692 -371q39 -21 39 -49q0 -17 -16 -41t-37 -24q-15 0 -43 14l-766 414q-43 23 -43 57q0 37 43 57l766 414q28 15 41 15q25 0 40 -25.5t15 -38.5q0 -27 -39 -51z" />
    <glyph glyph-name="equal" unicode="=" horiz-adv-x="1085" 
d="M963 639h-840q-66 0 -66 57q0 58 66 58h840q65 0 65 -58q0 -57 -65 -57zM963 270h-840q-66 0 -66 58q0 57 66 57h840q65 0 65 -57q0 -58 -65 -58zM243 460z" />
    <glyph glyph-name="greater" unicode="&#x3e;" horiz-adv-x="1085" 
d="M821 518l-692 370q-39 21 -39 51q0 13 15.5 38.5t39.5 25.5q10 0 20 -5l787 -422q43 -23 43 -58q0 -33 -43 -57l-766 -414q-26 -14 -43 -14q-20 0 -36.5 24t-16.5 41q0 27 39 49z" />
    <glyph glyph-name="question" unicode="?" horiz-adv-x="903" 
d="M457 459v-109q0 -63 -64 -63q-63 0 -63 63v119q0 104 48.5 187.5t160.5 160.5q95 67 130.5 128t35.5 130q0 94 -68.5 154.5t-181.5 60.5q-139 0 -246 -96q-31 -27 -40.5 -32t-25.5 -5q-21 0 -39 15.5t-18 41.5q0 59 113 129t260 70q171 0 274 -94t103 -240
q0 -94 -49.5 -178.5t-174.5 -177.5q-82 -61 -118.5 -119.5t-36.5 -144.5zM393 -20q-39 0 -65.5 26.5t-26.5 65.5t26.5 66.5t65.5 27.5q40 0 67 -27t27 -67q0 -39 -27 -65.5t-67 -26.5z" />
    <glyph glyph-name="at" unicode="@" horiz-adv-x="1681" 
d="M1051 397q-32 -67 -98 -102t-150 -35q-145 0 -230.5 107.5t-85.5 296.5q0 171 100 285t255 114q59 0 113 -25.5t79 -62.5v29q0 53 53 53q56 0 56 -53v-508q0 -61 27 -98.5t77 -37.5q89 0 146 98.5t57 278.5q0 254 -164.5 413t-433.5 159q-274 0 -446.5 -180.5
t-172.5 -477.5q0 -283 163 -452.5t423 -169.5q186 0 336 88q29 16 45 16q22 0 35.5 -16t13.5 -39q0 -26 -42 -55t-149 -65t-245 -36q-305 0 -499.5 205t-194.5 526q0 332 205 546t530 214q318 0 513.5 -188.5t195.5 -489.5q0 -204 -90 -339.5t-252 -135.5q-65 0 -110 38.5
t-60 98.5zM1034 754q0 97 -51 153t-141 56q-107 0 -173.5 -87.5t-66.5 -222.5q0 -147 56 -220t169 -73q89 0 148 62t59 153v179z" />
    <glyph glyph-name="A" unicode="A" horiz-adv-x="1171" 
d="M895 410h-612q-85 -277 -107 -367q-11 -49 -53 -49q-74 0 -74 57q0 39 63 244q104 337 174.5 525.5t171.5 399.5q73 152 90 165.5t42 13.5h14q26 0 41 -14t108 -211.5t170 -422t153 -500.5q46 -167 46 -202q0 -55 -71 -55q-43 0 -56 49q-16 84 -100 367zM858 535
q-111 367 -262 679q-157 -315 -274 -679h536z" />
    <glyph glyph-name="B" unicode="B" horiz-adv-x="1167" 
d="M801 737q131 -23 202.5 -113t71.5 -225q0 -188 -119 -293.5t-317 -105.5h-317q-65 0 -101.5 35t-36.5 100v1102q0 69 35.5 112.5t114.5 43.5h270q206 0 309 -90.5t103 -270.5q0 -102 -60.5 -186.5t-154.5 -108.5zM313 793h310q116 0 190 64t74 167q0 127 -70 184.5
t-219 57.5h-250q-15 0 -25 -11t-10 -28v-434zM313 666v-514q0 -31 27 -31h307q141 0 220 71.5t79 204.5t-85 201t-245 68h-303z" />
    <glyph glyph-name="C" unicode="C" horiz-adv-x="1190" 
d="M680 -20q-272 0 -430 194t-158 522q0 320 170.5 518.5t439.5 198.5q165 0 282.5 -60.5t117.5 -113.5q0 -26 -19 -44.5t-39 -18.5q-12 0 -21.5 4t-41.5 26q-121 86 -279 86q-216 0 -348.5 -163.5t-132.5 -432.5q0 -278 126.5 -437t334.5 -159q85 0 164.5 27.5t171.5 101.5
q28 23 51 23t37 -19t14 -40q0 -49 -136 -131t-304 -82z" />
    <glyph glyph-name="D" unicode="D" horiz-adv-x="1311" 
d="M580 0h-258q-65 0 -101.5 35t-36.5 100v1122q0 65 36.5 100.5t101.5 35.5h258q299 0 469 -180t170 -478q0 -331 -172.5 -533t-466.5 -202zM586 1266h-246q-27 0 -27 -31v-1077q0 -31 27 -31h246q242 0 373 161t131 437q0 256 -129 398.5t-375 142.5z" />
    <glyph glyph-name="E" unicode="E" horiz-adv-x="1032" 
d="M313 788h506q64 0 64 -65q0 -61 -64 -61h-506v-504q0 -31 27 -31h545q65 0 65 -61q0 -66 -65 -66h-563q-65 0 -101.5 35t-36.5 100v1102q0 69 35.5 112.5t114.5 43.5h551q65 0 65 -64q0 -63 -65 -63h-537q-15 0 -25 -11t-10 -28v-439z" />
    <glyph glyph-name="F" unicode="F" horiz-adv-x="1004" 
d="M313 788h486q63 0 63 -63t-63 -63h-486v-603q0 -65 -61 -65q-68 0 -68 63v1180q0 69 35.5 112.5t114.5 43.5h551q65 0 65 -64q0 -63 -65 -63h-539q-15 0 -24 -13t-9 -30v-435z" />
    <glyph glyph-name="G" unicode="G" horiz-adv-x="1319" 
d="M1165 217q0 -76 -39.5 -116t-154.5 -80.5t-260 -40.5q-286 0 -452.5 192.5t-166.5 515.5q0 221 82.5 385t233.5 252t321 88q95 0 177 -22t146.5 -60.5t75.5 -54.5t11 -35q0 -24 -19.5 -45.5t-44.5 -21.5q-14 0 -27 8t-28 18q-135 92 -295 92q-218 0 -361 -162.5
t-143 -441.5q0 -267 133 -427.5t363 -160.5q107 0 197 30t106 45.5t16 60.5v366h-309q-63 0 -63 64q0 63 63 63h377q61 0 61 -63v-449z" />
    <glyph glyph-name="H" unicode="H" horiz-adv-x="1350" 
d="M1165 59q0 -65 -65 -65q-64 0 -64 65v590h-723v-590q0 -65 -65 -65q-64 0 -64 65v1276q0 64 64 64q65 0 65 -64v-559h723v559q0 64 64 64q65 0 65 -64v-1276z" />
    <glyph glyph-name="I" unicode="I" horiz-adv-x="498" 
d="M313 59q0 -65 -65 -65q-64 0 -64 65v1276q0 64 64 64q65 0 65 -64v-1276z" />
    <glyph glyph-name="J" unicode="J" horiz-adv-x="905" 
d="M766 473q0 -240 -100.5 -366.5t-300.5 -126.5q-118 0 -220 44t-102 97q0 26 17 45.5t40 19.5q19 0 43 -14q118 -70 217 -70q141 0 209 92t68 281v860q0 64 63 64q66 0 66 -64v-862z" />
    <glyph glyph-name="K" unicode="K" horiz-adv-x="1157" 
d="M473 686l-160 -123v-506q0 -63 -65 -63q-64 0 -64 63v1278q0 64 64 64q65 0 65 -64v-620q182 133 337 297t282 358q20 31 49 31q26 0 48 -18t22 -42q0 -12 -7 -28t-85.5 -122t-180.5 -216.5t-209 -202.5q135 -137 248 -274.5t201.5 -269.5t94 -147t5.5 -28q0 -23 -22 -42
t-47 -19q-29 0 -54 35q-128 198 -258.5 362.5t-263.5 296.5z" />
    <glyph glyph-name="L" unicode="L" horiz-adv-x="954" 
d="M860 0h-536q-65 0 -102.5 35t-37.5 100v1200q0 64 66 64q63 0 63 -64v-1175q0 -33 29 -33h518q66 0 66 -61q0 -66 -66 -66z" />
    <glyph glyph-name="M" unicode="M" horiz-adv-x="1565" 
d="M1380 57q0 -63 -63 -63q-57 0 -57 63v1198l-402 -745q-29 -53 -76 -53q-44 0 -80 52l-397 746v-1198q0 -63 -59 -63q-62 0 -62 63v1231q0 47 28.5 79t76.5 32q68 0 98 -56l395 -733l396 733q30 56 98 56q48 0 76 -32t28 -79v-1231z" />
    <glyph glyph-name="N" unicode="N" horiz-adv-x="1360" 
d="M1176 96q0 -45 -29.5 -73.5t-77.5 -28.5q-62 0 -94 57l-670 1192v-1186q0 -63 -59 -63q-62 0 -62 63v1231q0 54 30 82.5t77 28.5q66 0 96 -56l668 -1189v1181q0 64 59 64q62 0 62 -64v-1239z" />
    <glyph glyph-name="O" unicode="O" horiz-adv-x="1356" 
d="M680 -20q-270 0 -429 201.5t-159 514.5q0 320 159.5 518.5t428.5 198.5t426.5 -201t157.5 -516q0 -311 -157.5 -513.5t-426.5 -202.5zM678 1290q-212 0 -334.5 -167t-122.5 -427q0 -259 124.5 -426.5t332.5 -167.5q212 0 334.5 168t122.5 426t-122.5 426t-334.5 168z" />
    <glyph glyph-name="P" unicode="P" horiz-adv-x="1083" 
d="M313 543v-486q0 -63 -63 -63q-66 0 -66 63v1180q0 69 35.5 112.5t114.5 43.5h262q203 0 316.5 -112t113.5 -318q0 -188 -123 -304t-321 -116h-269zM313 670h279q138 0 221.5 80t83.5 213q0 151 -76 227t-227 76h-246q-15 0 -25 -11t-10 -28v-557z" />
    <glyph glyph-name="Q" unicode="Q" horiz-adv-x="1356" 
d="M745 -16q1 -80 42 -119t135 -39q65 0 65 -62q0 -59 -65 -59q-144 0 -225 71.5t-81 207.5q-244 23 -384 222t-140 490q0 312 164 514.5t424 202.5q269 0 426.5 -201t157.5 -516q0 -292 -138.5 -490t-380.5 -222zM678 1290q-212 0 -334.5 -167t-122.5 -427
q0 -259 124.5 -426.5t332.5 -167.5q212 0 334.5 168t122.5 426t-122.5 426t-334.5 168z" />
    <glyph glyph-name="R" unicode="R" horiz-adv-x="1139" 
d="M313 627v-570q0 -63 -63 -63q-66 0 -66 63v1180q0 69 35.5 112.5t114.5 43.5h239q221 0 332 -93.5t111 -279.5q0 -141 -92.5 -240t-239.5 -118q73 -28 139.5 -106t127.5 -207q122 -257 122 -294q0 -28 -21.5 -45.5t-56.5 -17.5t-47 31q-119 314 -229 459t-262 145h-144z
M313 754h248q154 0 240 71t86 197t-75.5 185t-240.5 59h-223q-15 0 -25 -11t-10 -28v-473z" />
    <glyph glyph-name="S" unicode="S" horiz-adv-x="1042" 
d="M508 -20q-173 0 -298.5 70.5t-125.5 125.5q0 25 19 45.5t42 20.5q24 0 52 -23q142 -117 311 -117q134 0 214.5 72.5t80.5 198.5q0 76 -35.5 127t-91 80.5t-189.5 70.5q-154 45 -224 89.5t-110 116.5t-40 177q0 169 119.5 274t295.5 105q152 0 268.5 -68t116.5 -122
q0 -25 -18.5 -44.5t-44.5 -19.5q-16 0 -26.5 7.5t-30.5 23.5q-80 60 -139.5 80t-125.5 20q-132 0 -209 -70t-77 -186q0 -73 32.5 -120.5t84.5 -75.5t171 -62q242 -69 322 -165t80 -238q0 -176 -119.5 -284.5t-304.5 -108.5z" />
    <glyph glyph-name="T" unicode="T" horiz-adv-x="973" 
d="M551 1266v-1207q0 -65 -64 -65q-65 0 -65 65v1207h-340q-66 0 -66 63q0 64 66 64h809q65 0 65 -64q0 -63 -65 -63h-340z" />
    <glyph glyph-name="U" unicode="U" horiz-adv-x="1319" 
d="M1139 438q0 -208 -134 -333t-348 -125q-212 0 -344.5 125t-132.5 333v897q0 64 64 64q65 0 65 -64v-897q0 -155 94.5 -245.5t253.5 -90.5q157 0 255 90.5t98 245.5v897q0 64 63 64q66 0 66 -64v-897z" />
    <glyph glyph-name="V" unicode="V" horiz-adv-x="1139" 
d="M541 156q131 252 235 551t182 645q12 49 54 49q73 0 73 -58q0 -34 -72.5 -299t-153 -476t-168 -376.5t-104 -181.5t-46.5 -16q-27 0 -42 8.5t-48 70.5t-70 144q-90 193 -157.5 410.5t-120 450.5t-52.5 265q0 29 21.5 43.5t50.5 14.5q48 0 57 -53q61 -352 151.5 -650
t209.5 -542z" />
    <glyph glyph-name="W" unicode="W" horiz-adv-x="1812" 
d="M901 1092q-75 -326 -157 -554t-150.5 -373t-84.5 -158t-44 -13q-26 0 -39.5 11t-55.5 103q-69 152 -138 364q-34 106 -67 233.5t-64 275.5q-62 296 -62 356q0 29 20.5 46.5t55.5 17.5q50 0 55 -51q28 -213 107 -552.5t198 -619.5q113 245 205 538t162 634q11 51 67 51
q53 0 62 -53q27 -184 115.5 -542.5t203.5 -627.5q108 233 196 525.5t156 644.5q10 53 60 53q72 0 72 -55q0 -24 -41.5 -212.5t-121.5 -450t-165 -457t-106 -214t-46 -18.5q-22 0 -34 5.5t-20.5 16t-58 121t-106 276.5t-98 329.5t-76.5 349.5z" />
    <glyph glyph-name="X" unicode="X" horiz-adv-x="1104" 
d="M651 707q186 -172 279.5 -331t93.5 -317q0 -65 -60 -65q-69 0 -69 63q0 132 -79 267.5t-253 304.5q-188 -172 -274 -308.5t-86 -265.5q0 -61 -61 -61q-66 0 -66 65q0 151 101 310.5t300 337.5q-184 176 -266 327.5t-82 298.5q0 66 66 66q63 0 63 -64q0 -129 72 -259
t235 -292q163 157 249.5 293t86.5 260q0 62 66 62q61 0 61 -66q0 -143 -97 -298t-280 -328z" />
    <glyph glyph-name="Y" unicode="Y" horiz-adv-x="1028" 
d="M565 547v-490q0 -63 -63 -63q-66 0 -66 63v488q-159 151 -273 386t-114 406q0 62 66 62q63 0 63 -64q0 -147 90.5 -341t231.5 -343q142 144 243 348t107 338q2 35 17.5 48.5t47.5 13.5q64 0 64 -66q0 -149 -124.5 -390.5t-289.5 -395.5z" />
    <glyph glyph-name="Z" unicode="Z" horiz-adv-x="1051" 
d="M190 127h711q66 0 66 -64q0 -63 -66 -63h-774q-32 0 -53 20t-21 52q0 79 45.5 163.5t115 179.5t338.5 414q263 314 298 437h-682q-66 0 -66 63q0 64 66 64h745q32 0 54 -26t22 -58q0 -84 -75 -213t-412 -523q-267 -311 -312 -446z" />
    <glyph glyph-name="bracketleft" unicode="[" horiz-adv-x="561" 
d="M435 1401h-124q-28 0 -28 -33v-1382q0 -33 28 -33h124q32 0 49 -11.5t17 -43.5q0 -60 -66 -60h-142q-65 0 -97 34t-32 101v1407q0 68 32 102t97 34h142q66 0 66 -60q0 -32 -17 -43.5t-49 -11.5zM373 1536z" />
    <glyph glyph-name="backslash" unicode="\" horiz-adv-x="721" 
d="M686 0q6 -18 6 -29q0 -25 -21 -40t-50 -15q-38 0 -54 43l-538 1583q-4 12 -4 25q0 30 26.5 44.5t44.5 14.5q35 0 51 -45zM103 1536z" />
    <glyph glyph-name="bracketright" unicode="]" horiz-adv-x="561" 
d="M127 1516h141q64 0 96.5 -34t32.5 -102v-1407q0 -67 -32.5 -101t-96.5 -34h-141q-66 0 -66 60q0 32 17 43.5t49 11.5h123q29 0 29 33v1382q0 33 -29 33h-123q-32 0 -49 11.5t-17 43.5q0 60 66 60zM213 1536z" />
    <glyph glyph-name="asciicircum" unicode="^" horiz-adv-x="1208" 
d="M604 1247l-371 -518q-15 -21 -25.5 -30t-25.5 -9q-21 0 -42 17t-21 41q0 20 20 49l408 581q25 35 57 35q22 0 33.5 -9t24.5 -26l407 -585q21 -30 21 -50q0 -18 -19 -35.5t-45 -17.5q-25 0 -51 39z" />
    <glyph glyph-name="underscore" unicode="_" horiz-adv-x="1024" 
d="M1024 -322h-1024q-55 0 -55 58q0 57 55 57h1024q55 0 55 -57q0 -58 -55 -58z" />
    <glyph glyph-name="grave" unicode="`" horiz-adv-x="416" 
d="M268 1262l-198 157q-41 33 -41 60q0 26 18 43.5t43 17.5q23 0 55 -29l203 -157q39 -30 39 -58q0 -21 -18 -42t-41 -21q-20 0 -60 29z" />
    <glyph glyph-name="a" unicode="a" 
d="M965 57q0 -63 -64 -63q-63 0 -63 63v99q-52 -88 -131 -132t-185 -44q-202 0 -316 149t-114 395q0 242 116.5 391.5t328.5 149.5q101 0 176 -40.5t125 -121.5v86q0 62 63 62q64 0 64 -62v-932zM838 623q0 142 -84 231.5t-213 89.5q-152 0 -237 -119t-85 -301
q0 -197 81 -310.5t241 -113.5q131 0 214 89.5t83 230.5v203z" />
    <glyph glyph-name="b" unicode="b" 
d="M279 152v-95q0 -63 -66 -63q-61 0 -61 63v1418q0 61 61 61q66 0 66 -61v-594q44 82 127.5 133t185.5 51q210 0 321 -137t111 -396q0 -254 -120.5 -403t-325.5 -149q-100 0 -178 44.5t-121 127.5zM279 602v-158q0 -152 82 -248t214 -96q151 0 236.5 117t85.5 315t-82 305
t-235 107q-130 0 -215.5 -90.5t-85.5 -251.5z" />
    <glyph glyph-name="c" unicode="c" horiz-adv-x="987" 
d="M905 899q0 -25 -18 -44t-43 -19q-18 0 -56 28q-66 48 -118 64t-109 16q-153 0 -247.5 -114t-94.5 -308t91.5 -308t244.5 -114q124 0 236 86q38 29 57 29q26 0 42.5 -21t16.5 -44q0 -48 -111 -109t-245 -61q-207 0 -333 148.5t-126 393.5t133.5 394t339.5 149
q141 0 240.5 -59t99.5 -107z" />
    <glyph glyph-name="d" unicode="d" 
d="M965 57q0 -63 -62 -63q-65 0 -65 63v80q-45 -74 -125 -115.5t-172 -41.5q-213 0 -331 142t-118 394q0 247 122.5 398t326.5 151q95 0 172.5 -41.5t124.5 -118.5v570q0 61 65 61q62 0 62 -61v-1418zM838 623q0 142 -84 231.5t-213 89.5q-141 0 -231.5 -117.5t-90.5 -310.5
q0 -200 85.5 -308t236.5 -108q129 0 213 91.5t84 232.5v199z" />
    <glyph glyph-name="e" unicode="e" horiz-adv-x="1042" 
d="M221 483q0 -167 96 -275t244 -108q63 0 128 20.5t112 51.5q32 21 47 21q24 0 40.5 -21t16.5 -45q0 -45 -107.5 -96t-238.5 -51q-215 0 -341 145t-126 387q0 240 124 396.5t337 156.5q188 0 295.5 -126.5t107.5 -338.5q0 -57 -25.5 -87t-70.5 -30h-639zM829 602
q0 152 -74.5 247t-205.5 95q-137 0 -225 -93.5t-99 -248.5h604z" />
    <glyph glyph-name="f" unicode="f" horiz-adv-x="608" 
d="M336 1044h174q63 0 63 -59t-63 -59h-174v-869q0 -63 -64 -63q-63 0 -63 63v869h-115q-63 0 -63 59t63 59h115v136q0 178 74.5 267t224.5 89q46 0 93.5 -18.5t47.5 -59.5q0 -23 -14.5 -43t-36.5 -20q-10 0 -31 8q-30 12 -65 12q-91 0 -128.5 -54t-37.5 -175v-142z" />
    <glyph glyph-name="g" unicode="g" 
d="M965 94q0 -262 -119 -394t-348 -132q-110 0 -223 48t-113 95q0 31 17 50.5t36 19.5t57 -23q68 -38 118.5 -53.5t111.5 -15.5q168 0 252 93.5t84 280.5v99q-44 -84 -125.5 -133t-186.5 -49q-198 0 -316 145.5t-118 398.5q0 252 121.5 396.5t327.5 144.5q95 0 172.5 -41.5
t124.5 -118.5v84q0 62 65 62q62 0 62 -62v-895zM838 623q0 142 -84 231.5t-213 89.5q-146 0 -234 -110.5t-88 -309.5q0 -198 85 -311t237 -113q133 0 215 91.5t82 232.5v199z" />
    <glyph glyph-name="h" unicode="h" horiz-adv-x="1114" 
d="M967 57q0 -63 -62 -63q-65 0 -65 63v602q0 139 -63 212t-185 73q-138 0 -225.5 -98t-87.5 -266v-523q0 -63 -64 -63q-63 0 -63 63v1416q0 63 63 63q64 0 64 -63v-594q48 86 135.5 136t193.5 50q175 0 267 -99.5t92 -271.5v-637z" />
    <glyph glyph-name="i" unicode="i" horiz-adv-x="430" 
d="M215 1303q-37 0 -61 26t-24 60q0 35 25 60.5t60 25.5t60.5 -24.5t25.5 -61.5q0 -38 -24.5 -62t-61.5 -24zM279 57q0 -63 -66 -63q-61 0 -61 63v932q0 62 63 62q64 0 64 -62v-932z" />
    <glyph glyph-name="j" unicode="j" horiz-adv-x="430" 
d="M215 1303q-37 0 -61 26t-24 60q0 35 25 60.5t60 25.5t60.5 -24.5t25.5 -61.5q0 -38 -24.5 -62t-61.5 -24zM279 -84q0 -173 -75 -260.5t-220 -87.5q-58 0 -108 16t-50 58q0 26 13.5 44.5t35.5 18.5q13 0 31 -6q36 -12 80 -12q85 0 125.5 55t40.5 178v1067q0 64 63 64
q64 0 64 -64v-1071z" />
    <glyph glyph-name="k" unicode="k" horiz-adv-x="950" 
d="M279 575q140 100 253 211t199 234q24 33 51 33q28 0 47 -17t19 -37q0 -19 -13 -42.5t-83 -110.5t-242 -240q68 -62 135 -139t133 -170q131 -185 131 -246q0 -21 -18.5 -40t-46.5 -19q-23 0 -35 11.5t-23 31.5q-81 154 -175 278t-201 217q-98 -73 -131 -94v-377
q0 -65 -64 -65q-63 0 -63 65v1414q0 63 63 63q64 0 64 -63v-898z" />
    <glyph glyph-name="l" unicode="l" horiz-adv-x="430" 
d="M279 55q0 -61 -64 -61q-63 0 -63 61v1420q0 61 63 61q64 0 64 -61v-1420z" />
    <glyph glyph-name="m" unicode="m" horiz-adv-x="1712" 
d="M1565 57q0 -63 -62 -63q-65 0 -65 63v633q0 118 -65 186t-179 68q-123 0 -197.5 -87.5t-74.5 -252.5v-547q0 -63 -62 -63q-65 0 -65 63v633q0 120 -62 187t-174 67q-131 0 -205.5 -91t-74.5 -249v-547q0 -63 -64 -63q-63 0 -63 63v930q0 64 63 64q64 0 64 -64v-86
q45 75 122 119.5t168 44.5q110 0 189 -46.5t127 -139.5q46 88 129.5 137t187.5 49q172 0 267.5 -94.5t95.5 -261.5v-652z" />
    <glyph glyph-name="n" unicode="n" horiz-adv-x="1114" 
d="M967 57q0 -63 -62 -63q-65 0 -65 63v602q0 139 -63 212t-185 73q-138 0 -225.5 -98t-87.5 -266v-523q0 -63 -64 -63q-63 0 -63 63v930q0 64 63 64q64 0 64 -64v-108q48 86 135.5 136t193.5 50q175 0 267 -99.5t92 -271.5v-637z" />
    <glyph glyph-name="o" unicode="o" horiz-adv-x="1100" 
d="M549 -20q-201 0 -329 146.5t-128 395.5q0 259 128 401t329 142q203 0 331 -144t128 -399q0 -248 -128.5 -395t-330.5 -147zM549 944q-140 0 -235 -105t-95 -317q0 -210 99.5 -316t230.5 -106q132 0 232 106t100 316q0 208 -93.5 315t-238.5 107z" />
    <glyph glyph-name="p" unicode="p" 
d="M575 100q144 0 233 117t89 315q0 194 -85.5 303t-236.5 109q-131 0 -213.5 -89.5t-82.5 -227.5v-209q0 -141 83 -229.5t213 -88.5zM573 -20q-98 0 -171.5 39.5t-122.5 119.5v-510q0 -61 -66 -61q-61 0 -61 61v1358q0 64 61 64q66 0 66 -64v-76q44 72 123 113t173 41
q211 0 330 -140t119 -393t-122.5 -402.5t-328.5 -149.5z" />
    <glyph glyph-name="q" unicode="q" 
d="M965 -371q0 -61 -62 -61q-65 0 -65 61v510q-46 -75 -123.5 -117t-173.5 -42q-208 0 -328.5 142t-120.5 392q0 249 129.5 400t333.5 151q93 0 164 -38.5t119 -115.5v76q0 64 65 64q62 0 62 -64v-1358zM838 627q0 139 -83.5 228t-213.5 89q-148 0 -235 -117t-87 -313
q0 -193 87 -303.5t235 -110.5q131 0 214 89.5t83 230.5v207z" />
    <glyph glyph-name="r" unicode="r" horiz-adv-x="698" 
d="M279 918q40 73 102.5 110t148.5 37q75 0 111.5 -20.5t36.5 -51.5q0 -26 -11.5 -45.5t-33.5 -19.5q-13 0 -31 6q-34 10 -74 10q-113 0 -181 -80t-68 -211v-596q0 -63 -64 -63q-63 0 -63 63v932q0 62 63 62q64 0 64 -62v-71z" />
    <glyph glyph-name="s" unicode="s" horiz-adv-x="895" 
d="M442 -20q-81 0 -147.5 17t-130.5 53.5t-77 54.5t-13 40q0 25 17.5 44.5t39.5 19.5q25 0 49 -19q51 -39 122.5 -64.5t139.5 -25.5q115 0 179.5 47t64.5 127q0 73 -51 112t-137 58q-140 29 -202.5 48t-107.5 52.5t-71.5 85t-26.5 130.5q0 135 104.5 220t266.5 85
q119 0 222 -47.5t103 -95.5q0 -24 -18.5 -47t-40.5 -23q-21 0 -49 20q-105 72 -219 72q-117 0 -179.5 -49.5t-62.5 -126.5q0 -59 31 -96.5t82 -57t185 -48.5q178 -38 238 -106t60 -177q0 -130 -99.5 -216.5t-271.5 -86.5z" />
    <glyph glyph-name="t" unicode="t" horiz-adv-x="649" 
d="M336 928v-652q0 -88 30 -132t91 -44q24 0 41 4.5t57 23.5q12 5 23 5q20 0 35.5 -18t15.5 -41q0 -36 -53 -65t-123 -29q-130 0 -187 71t-57 215v662h-115q-63 0 -63 57q0 59 63 59h115v240q0 62 63 62q64 0 64 -62v-240h174q63 0 63 -59q0 -57 -63 -57h-174z" />
    <glyph glyph-name="u" unicode="u" horiz-adv-x="1114" 
d="M963 57q0 -63 -64 -63q-63 0 -63 63v109q-55 -93 -138.5 -139.5t-195.5 -46.5q-170 0 -262.5 104t-92.5 283v620q0 64 62 64q65 0 65 -64v-612q0 -125 64.5 -200t181.5 -75q147 0 231.5 98.5t84.5 260.5v528q0 64 63 64q64 0 64 -64v-930z" />
    <glyph glyph-name="v" unicode="v" horiz-adv-x="971" 
d="M465 145q96 171 178 386t150 473q12 49 55 49q72 0 72 -56q0 -42 -55.5 -215t-132.5 -349.5t-145 -296.5t-83 -131t-37 -11h-12q-30 0 -46.5 20.5t-63.5 106.5t-116.5 259t-123.5 368.5t-54 242.5q0 29 20.5 45.5t51.5 16.5q47 0 57 -52q38 -203 113.5 -432t171.5 -424z
" />
    <glyph glyph-name="w" unicode="w" horiz-adv-x="1507" 
d="M748 801q-61 -231 -127 -419t-118.5 -280.5t-67.5 -100t-32 -7.5h-10q-23 0 -46 13t-88.5 168.5t-129.5 395t-88 406.5q-2 14 -2 20q0 56 65 56q49 0 58 -54q31 -193 91 -423.5t148 -430.5q164 329 285 856q10 52 68 52q53 0 65 -54q103 -546 246 -854q97 208 166 422
t110 434q9 52 62 52q65 0 65 -54q0 -11 -4 -34q-20 -120 -98 -366.5t-152.5 -409.5t-95 -179t-49.5 -16h-12q-25 0 -45 14t-76.5 149t-103.5 298t-84 346z" />
    <glyph glyph-name="x" unicode="x" horiz-adv-x="965" 
d="M588 528q154 -128 231.5 -246.5t77.5 -226.5q0 -61 -66 -61q-61 0 -61 63q0 87 -76 194t-202 206q-131 -100 -217.5 -210.5t-86.5 -191.5q0 -61 -58 -61q-69 0 -69 65q0 104 86 225t248 246q-132 114 -210.5 236.5t-78.5 224.5q0 60 64 60q63 0 63 -62q0 -78 69 -179.5
t192 -209.5q140 123 210 221t70 170q0 60 66 60q63 0 63 -62q0 -95 -79 -210.5t-236 -250.5z" />
    <glyph glyph-name="y" unicode="y" horiz-adv-x="1114" 
d="M963 63q0 -240 -116.5 -367.5t-342.5 -127.5q-78 0 -143 16t-115 39t-64 38t-14 34q0 31 17.5 50t37.5 19q15 0 35 -10q125 -65 250 -65q164 0 246 96t82 274v107q-110 -186 -334 -186q-170 0 -262.5 104t-92.5 283v620q0 64 64 64q63 0 63 -62v-612q0 -125 64 -201
t182 -76q145 0 230.5 98.5t85.5 262.5v526q0 64 63 64q64 0 64 -64v-924z" />
    <glyph glyph-name="z" unicode="z" horiz-adv-x="874" 
d="M172 119h573q64 0 64 -60q0 -59 -64 -59h-636q-36 0 -57 23.5t-21 60.5q0 71 74 174t338 363q198 194 245 305h-543q-63 0 -63 59t63 59h611q78 0 78 -75q0 -35 -38 -108t-107.5 -157t-275.5 -286q-199 -196 -241 -299z" />
    <glyph glyph-name="braceleft" unicode="{" horiz-adv-x="623" 
d="M193 678q93 -42 134.5 -132t41.5 -259v-137q0 -94 12.5 -131t36 -49.5t85.5 -14.5q31 -2 45 -14t14 -41q0 -60 -69 -60q-126 0 -184.5 65.5t-58.5 256.5v168q0 129 -28.5 186.5t-102.5 89.5q-28 13 -47 27.5t-19 46.5q0 52 64 70q66 17 99.5 86t33.5 190v168
q0 206 66.5 264t171.5 58q74 0 74 -56q0 -59 -65 -59q-78 0 -103 -35t-25 -160v-137q0 -169 -41.5 -259t-134.5 -132zM443 1536z" />
    <glyph glyph-name="bar" unicode="|" horiz-adv-x="446" 
d="M283 -414q0 -61 -60 -61q-59 0 -59 61v1995q0 59 57 59q62 0 62 -59v-1995zM223 1536z" />
    <glyph glyph-name="braceright" unicode="}" horiz-adv-x="623" 
d="M430 678q-92 41 -134 129.5t-42 261.5v137q0 115 -22 155t-105 40q-66 0 -66 59q0 56 74 56q110 0 174 -60.5t64 -261.5v-168q0 -121 33 -190t101 -86q63 -17 63 -70q0 -32 -18.5 -46.5t-46.5 -27.5q-75 -32 -103.5 -89.5t-28.5 -186.5v-168q0 -186 -57 -254t-185 -68
q-70 0 -70 60q0 29 14.5 41t45.5 14q63 3 85.5 15t35 51t12.5 129v137q0 177 43.5 264.5t132.5 126.5zM193 1536z" />
    <glyph glyph-name="asciitilde" unicode="~" horiz-adv-x="1165" 
d="M768 387q-94 0 -205 83q-112 83 -178 83q-47 0 -80 -21.5t-67 -87.5q-19 -36 -43 -36q-20 0 -38 14t-18 39q0 66 68.5 140.5t187.5 74.5q97 0 210 -83t173 -83q42 0 73.5 18.5t66.5 81.5q17 31 26 38t23 7q23 0 41 -12t18 -37q0 -68 -71 -143.5t-187 -75.5z" />
    <glyph glyph-name="uni00A0" unicode="&#xa0;" horiz-adv-x="475" 
 />
    <glyph glyph-name="exclamdown" unicode="&#xa1;" horiz-adv-x="514" 
d="M258 1065q39 0 65.5 -26.5t26.5 -65.5t-26.5 -66.5t-65.5 -27.5q-40 0 -67 27t-27 67q0 39 27.5 65.5t66.5 26.5zM193 670q0 63 63 63t63 -63v-967q0 -63 -63 -63t-63 63v967z" />
    <glyph glyph-name="cent" unicode="&#xa2;" horiz-adv-x="973" 
d="M602 942v-840q103 14 189 80q38 29 57 29q28 0 43.5 -20t15.5 -41q0 -47 -104 -103.5t-201 -62.5v-152q0 -51 -51 -51q-49 0 -49 51v152q-190 17 -300 162.5t-110 375.5q0 220 109.5 365.5t300.5 173.5v125q0 51 49 51q51 0 51 -51v-123q121 -7 212 -62.5t91 -101.5
q0 -25 -18 -44t-43 -19q-18 0 -56 28q-90 68 -186 78zM502 102v836q-132 -24 -207.5 -134.5t-75.5 -281.5q0 -177 75.5 -287.5t207.5 -132.5z" />
    <glyph glyph-name="sterling" unicode="&#xa3;" horiz-adv-x="1085" 
d="M467 625q16 -68 16 -148q0 -95 -42.5 -184.5t-127.5 -173.5h588q64 0 64 -60q0 -59 -64 -59h-657q-78 0 -78 76q0 25 11.5 47t64.5 80q65 71 90.5 133t25.5 133q0 80 -24 156h-152q-63 0 -63 59q0 61 63 61h109q-55 141 -55 275q0 171 111 282t288 111q144 0 241 -63
t97 -107q0 -25 -17 -44t-45 -19q-25 0 -61 30q-101 82 -215 82q-124 0 -198.5 -75t-74.5 -193q0 -100 44 -213l24 -66h326q63 0 63 -61q0 -59 -63 -59h-289z" />
    <glyph glyph-name="currency" unicode="&#xa4;" horiz-adv-x="1085" 
d="M945 98q-21 -18 -39 -18q-24 0 -49 25l-98 100q-99 -72 -219 -72q-122 0 -221 72l-98 -98q-27 -27 -46 -27q-18 0 -38.5 18.5t-20.5 40.5q0 23 25 47l98 99q-70 102 -70 219q0 121 72 220l-102 95q-25 25 -25 49q0 23 21 41.5t36 18.5q23 0 50 -27l102 -97q97 71 217 71
t217 -71l100 95q29 29 45 29q20 0 41 -18.5t21 -41.5q0 -22 -25 -47l-102 -97q74 -102 74 -220q0 -119 -72 -217l100 -101q25 -25 25 -49q0 -17 -19 -39zM540 233q109 0 190 79t81 192t-79.5 192t-191.5 79q-113 0 -192 -79.5t-79 -191.5q0 -113 80 -192t191 -79z" />
    <glyph glyph-name="yen" unicode="&#xa5;" horiz-adv-x="1085" 
d="M606 369v-312q0 -63 -63 -63q-66 0 -66 63v312h-323q-66 0 -66 59t66 59h323v172h-323q-66 0 -66 60q0 59 66 59h229q-105 134 -181.5 300.5t-76.5 258.5q0 62 65 62q31 0 43.5 -16.5t18.5 -47.5q57 -299 289 -557q115 123 202 274t113 285q6 32 20 47t46 15q63 0 63 -56
q0 -80 -89 -256.5t-194 -308.5h230q65 0 65 -59q0 -60 -65 -60h-326v-172h326q65 0 65 -59t-65 -59h-326z" />
    <glyph glyph-name="brokenbar" unicode="&#xa6;" horiz-adv-x="446" 
d="M283 862q0 -61 -60 -61q-59 0 -59 61v719q0 59 57 59q62 0 62 -59v-719zM283 -414q0 -61 -60 -61q-59 0 -59 61v719q0 60 57 60q62 0 62 -60v-719zM223 1536z" />
    <glyph glyph-name="section" unicode="&#xa7;" horiz-adv-x="1018" 
d="M750 227q63 -39 95 -98.5t32 -138.5q0 -144 -108 -243t-300 -99q-117 0 -248 57.5t-131 106.5q0 26 20 47.5t40 21.5q21 0 49 -18q70 -47 138 -70.5t134 -23.5q138 0 207.5 59.5t69.5 153.5q0 80 -50 127.5t-227 117.5q-140 55 -202 97t-95 100.5t-33 140.5
q0 93 48 164.5t145 122.5q-82 46 -119 107t-37 149q0 129 103 221t272 92q103 0 177 -27t101 -44.5t27 -44.5q0 -28 -17.5 -50t-41.5 -22q-20 0 -60 20q-44 23 -91.5 35t-98.5 12q-115 0 -178.5 -52t-63.5 -134q0 -75 45.5 -121t161.5 -92q181 -72 253.5 -116t110 -105.5
t37.5 -157.5q0 -83 -42.5 -162.5t-122.5 -132.5zM440 795q-86 -32 -128 -89.5t-42 -125.5t39 -116t144 -91l198 -86q64 39 102 98t38 121q0 59 -26 106t-131 103z" />
    <glyph glyph-name="dieresis" unicode="&#xa8;" horiz-adv-x="813" 
d="M588 1233q-35 0 -60.5 25.5t-25.5 60.5t25.5 60.5t60.5 25.5q37 0 61.5 -24.5t24.5 -61.5t-24.5 -61.5t-61.5 -24.5zM225 1233q-35 0 -60.5 25.5t-25.5 60.5t25.5 60.5t60.5 25.5q37 0 61.5 -24.5t24.5 -61.5t-24.5 -61.5t-61.5 -24.5z" />
    <glyph glyph-name="copyright" unicode="&#xa9;" horiz-adv-x="1591" 
d="M795 1413q189 0 355 -94t262.5 -260.5t96.5 -360.5q0 -193 -97 -358.5t-262.5 -259.5t-354.5 -94q-191 0 -356.5 94.5t-261 260.5t-95.5 357t94 357.5t260.5 262t358.5 95.5zM795 96q249 0 426.5 177.5t177.5 424.5q0 249 -177.5 427t-426.5 178t-425.5 -178.5
t-176.5 -426.5q0 -246 177 -424t425 -178zM1063 1030q12 -18 12 -35q0 -24 -17 -38.5t-36 -14.5q-28 0 -53 27q-58 61 -154 61q-120 0 -190 -95t-70 -235q0 -142 70 -235.5t194 -93.5q93 0 174 69q27 23 43 23q23 0 38.5 -17.5t15.5 -37.5q0 -42 -87.5 -94t-203.5 -52
q-154 0 -256.5 116t-102.5 322q0 190 99.5 314.5t275.5 124.5q155 0 248 -109z" />
    <glyph glyph-name="ordfeminine" unicode="&#xaa;" horiz-adv-x="770" 
d="M688 750q0 -54 -53 -54q-55 0 -55 54v47q-67 -111 -195 -111q-142 0 -219.5 101.5t-77.5 263.5q0 164 81 263t226 99q125 0 185 -96v35q0 51 55 51q53 0 53 -51v-602zM580 1110q0 86 -50.5 142.5t-132.5 56.5q-94 0 -147 -70t-53 -188q0 -125 51 -192.5t149 -67.5
q80 0 131.5 56t51.5 142v121z" />
    <glyph glyph-name="guillemotleft" unicode="&#xab;" horiz-adv-x="1159" 
d="M243 550l382 -337q28 -25 28 -49q0 -17 -16 -39q-23 -23 -39 -23q-18 0 -49 23l-425 374q-29 26 -29 51q0 24 29 51l425 375q25 22 47 22q23 0 40 -21t17 -40q0 -21 -28 -49zM673 550l382 -337q28 -25 28 -49q0 -17 -16 -39q-23 -23 -39 -23q-18 0 -49 23l-425 374
q-29 26 -29 51q0 22 29 51l425 375q25 22 47 22q23 0 40 -21t17 -40q0 -21 -28 -49z" />
    <glyph glyph-name="logicalnot" unicode="&#xac;" horiz-adv-x="1085" 
d="M1028 274q0 -63 -59 -63q-60 0 -60 63v365h-786q-66 0 -66 57q0 58 66 58h840q38 0 51.5 -13t13.5 -45v-422zM223 460z" />
    <glyph glyph-name="uni00AD" unicode="&#xad;" horiz-adv-x="737" 
d="M584 485h-430q-64 0 -64 64q0 63 64 63h430q63 0 63 -63q0 -64 -63 -64z" />
    <glyph glyph-name="registered" unicode="&#xae;" horiz-adv-x="1591" 
d="M795 1413q189 0 355 -94t262.5 -260.5t96.5 -360.5q0 -193 -97 -358.5t-262.5 -259.5t-354.5 -94q-191 0 -356.5 94.5t-261 260.5t-95.5 357t94 357.5t260.5 262t358.5 95.5zM795 96q249 0 426.5 177.5t177.5 424.5q0 249 -177.5 427t-426.5 178t-425.5 -178.5
t-176.5 -426.5q0 -246 177 -424t425 -178zM666 645v-305q0 -55 -56 -55q-59 0 -59 55v668q0 108 106 108h136q134 0 201 -58.5t67 -174.5q0 -73 -41 -130.5t-115 -78.5q58 -38 126.5 -172.5t68.5 -161.5q0 -23 -18 -39t-46 -16q-33 0 -45 32q-60 160 -120.5 244t-137.5 84
h-67zM666 1004v-250h118q75 0 119.5 33t44.5 92q0 71 -36 98t-117 27h-129z" />
    <glyph glyph-name="uni00AF" unicode="&#xaf;" horiz-adv-x="1024" 
d="M1024 1606h-1024q-55 0 -55 58q0 57 55 57h1024q55 0 55 -57q0 -58 -55 -58z" />
    <glyph glyph-name="degree" unicode="&#xb0;" horiz-adv-x="721" 
d="M360 852q-114 0 -197 85t-83 202q0 116 83.5 201t196.5 85q114 0 197.5 -84.5t83.5 -201.5t-83.5 -202t-197.5 -85zM360 1311q-68 0 -116.5 -50t-48.5 -122q0 -70 47 -121t118 -51t118.5 50.5t47.5 121.5q0 72 -49 122t-117 50z" />
    <glyph glyph-name="plusminus" unicode="&#xb1;" horiz-adv-x="1085" 
d="M602 584v-283q0 -63 -59 -63q-60 0 -60 63v283h-360q-66 0 -66 57t66 57h360v283q0 63 60 63q59 0 59 -63v-283h361q65 0 65 -57t-65 -57h-361zM963 0h-840q-66 0 -66 57q0 58 66 58h840q65 0 65 -58q0 -57 -65 -57zM223 460z" />
    <glyph glyph-name="twosuperior" unicode="&#xb2;" horiz-adv-x="793" 
d="M246 676h336q55 0 55 -51q0 -56 -55 -56h-334q-55 0 -82 24.5t-27 74.5q0 68 38 132.5t208 188.5q77 54 112 100t35 99q0 54 -33 87.5t-102 33.5q-70 0 -141 -56q-25 -18 -43 -18q-20 0 -35.5 17t-15.5 38q0 39 80.5 81t160.5 42q116 0 179 -58.5t63 -160.5
q0 -72 -40 -134.5t-161 -152.5q-88 -65 -124 -97t-55 -66t-19 -68z" />
    <glyph glyph-name="threesuperior" unicode="&#xb3;" horiz-adv-x="791" 
d="M510 1286h-311q-52 0 -52 53q0 54 52 54h331q48 0 72.5 -19t24.5 -57q0 -21 -15 -50.5t-45 -68.5l-114 -143q98 -20 147 -81.5t49 -164.5q0 -113 -82.5 -190.5t-201.5 -77.5q-95 0 -163.5 38t-68.5 70q0 23 16 41.5t39 18.5q14 0 39 -17q40 -27 66 -36t69 -9
q76 0 126.5 45.5t50.5 116.5q0 77 -42.5 117.5t-142.5 40.5q-45 0 -45 47q0 24 23 49q128 157 178 223z" />
    <glyph glyph-name="acute" unicode="&#xb4;" horiz-adv-x="416" 
d="M348 1419l-201 -157q-37 -29 -55 -29q-25 0 -44 18t-19 45q0 26 41 58l194 153q42 33 62 33q23 0 42 -17.5t19 -43.5t-39 -60z" />
    <glyph glyph-name="uni00B5" unicode="&#xb5;" horiz-adv-x="1118" 
d="M967 57q0 -63 -64 -63q-63 0 -63 63v109q-49 -87 -136 -136.5t-194 -49.5q-69 0 -132.5 25.5t-98.5 68.5v-443q0 -63 -64 -63q-63 0 -63 63v1356q0 64 63 64q64 0 64 -64v-602q0 -139 65 -210t182 -71q140 0 227 97t87 264v522q0 64 63 64q64 0 64 -64v-930z" />
    <glyph glyph-name="paragraph" unicode="&#xb6;" horiz-adv-x="1012" 
d="M793 1270v-1409q0 -66 -66 -66q-61 0 -61 66v1409h-181v-1409q0 -66 -63 -66q-64 0 -64 66v973q-121 6 -200.5 88.5t-79.5 197.5q0 117 84 198t203 81h534q64 0 64 -64q0 -65 -64 -65h-106z" />
    <glyph glyph-name="uni00B7" unicode="&#xb7;" horiz-adv-x="406" 
d="M203 532q-43 0 -72 29.5t-29 69.5q0 41 29 70.5t72 29.5q42 0 71 -29t29 -71q0 -39 -29.5 -69t-70.5 -30z" />
    <glyph glyph-name="cedilla" unicode="&#xb8;" horiz-adv-x="885" 
d="M428 0h92l-53 -102q22 4 47 4q65 0 97 -36t32 -91q0 -71 -50 -114.5t-142 -43.5q-69 0 -106.5 21t-37.5 47q0 18 11 30.5t26 12.5q14 0 22 -4q46 -23 93 -23q41 0 61.5 16.5t20.5 49.5q0 31 -20 46t-60 15q-20 0 -39 -2t-33 -2q-31 0 -31 29q0 16 13 38z" />
    <glyph glyph-name="onesuperior" unicode="&#xb9;" horiz-adv-x="791" 
d="M348 1282l-98 -57q-36 -21 -51 -21q-25 0 -38.5 18t-13.5 38q0 27 37 47l160 90q28 16 51 16q64 0 64 -70v-667h123q55 0 55 -53q0 -54 -55 -54h-369q-55 0 -55 52q0 55 55 55h135v606z" />
    <glyph glyph-name="ordmasculine" unicode="&#xba;" horiz-adv-x="793" 
d="M395 686q-137 0 -222 103t-85 260q0 160 82.5 262t224.5 102q140 0 223.5 -95.5t83.5 -258.5q0 -168 -85.5 -270.5t-221.5 -102.5zM594 1056q0 120 -52 186.5t-147 66.5q-97 0 -147.5 -69.5t-50.5 -190.5q0 -116 50.5 -188.5t147.5 -72.5q94 0 146.5 69.5t52.5 198.5z
" />
    <glyph glyph-name="guillemotright" unicode="&#xbb;" horiz-adv-x="1159" 
d="M92 125q-16 22 -16 39q0 25 28 49l382 337l-382 338q-28 25 -28 49q0 19 17.5 40t39.5 21t47 -22l425 -375q29 -26 29 -51q0 -29 -29 -51l-425 -374q-26 -23 -49 -23q-16 0 -39 23zM522 976q21 22 41 22q22 0 47 -22l425 -375q29 -26 29 -51q0 -29 -29 -51l-425 -374
q-26 -23 -49 -23q-16 0 -39 23q-16 22 -16 39q0 25 29 49l381 337l-381 338q-29 26 -29 49q0 17 16 39z" />
    <glyph glyph-name="onequarter" unicode="&#xbc;" horiz-adv-x="1765" 
d="M348 1282l-98 -57q-36 -21 -51 -21q-25 0 -38.5 18t-13.5 38q0 27 37 47l160 90q28 16 51 16q64 0 64 -70v-667h123q55 0 55 -53q0 -54 -55 -54h-369q-55 0 -55 52q0 55 55 55h135v606zM1389 1319l-895 -1307q-22 -32 -47 -32q-21 0 -39.5 15.5t-18.5 31.5q0 14 7 24
l909 1329q23 33 47 33q20 0 38.5 -15t18.5 -32t-20 -47zM1545 191v-148q0 -51 -55 -51q-52 0 -52 51v148h-284q-54 0 -80.5 20.5t-26.5 61.5q0 32 23 78l231 456q19 37 47 37q22 0 40 -13.5t18 -35.5q0 -19 -19 -51l-229 -451h280v293q0 53 52 53q55 0 55 -53v-293h43
q51 0 51 -53q0 -49 -51 -49h-43z" />
    <glyph glyph-name="onehalf" unicode="&#xbd;" horiz-adv-x="1765" 
d="M348 1282l-98 -57q-36 -21 -51 -21q-25 0 -38.5 18t-13.5 38q0 27 37 47l160 90q28 16 51 16q64 0 64 -70v-667h123q55 0 55 -53q0 -54 -55 -54h-369q-55 0 -55 52q0 55 55 55h135v606zM1389 1319l-895 -1307q-22 -32 -47 -32q-21 0 -39.5 15.5t-18.5 31.5q0 14 7 24
l909 1329q23 33 47 33q20 0 38.5 -15t18.5 -32t-20 -47zM1216 107h336q55 0 55 -51q0 -56 -55 -56h-334q-55 0 -82 24.5t-27 74.5q0 68 38 132.5t208 188.5q77 54 112 100t35 99q0 54 -33 87.5t-102 33.5q-70 0 -141 -56q-25 -18 -43 -18q-20 0 -35.5 17t-15.5 38
q0 39 80.5 81t160.5 42q116 0 179 -58.5t63 -160.5q0 -72 -40 -134.5t-161 -152.5q-88 -65 -124 -97t-55 -66t-19 -68z" />
    <glyph glyph-name="threequarters" unicode="&#xbe;" horiz-adv-x="1782" 
d="M510 1286h-311q-52 0 -52 53q0 54 52 54h331q48 0 72.5 -19t24.5 -57q0 -21 -15 -50.5t-45 -68.5l-114 -143q98 -20 147 -81.5t49 -164.5q0 -113 -82.5 -190.5t-201.5 -77.5q-95 0 -163.5 38t-68.5 70q0 23 16 41.5t39 18.5q14 0 39 -17q40 -27 66 -36t69 -9
q76 0 126.5 45.5t50.5 116.5q0 77 -42.5 117.5t-142.5 40.5q-45 0 -45 47q0 24 23 49q128 157 178 223zM1395 1319l-895 -1307q-22 -32 -47 -32q-21 0 -39.5 15.5t-18.5 31.5q0 14 7 24l909 1329q23 33 47 33q20 0 38.5 -15t18.5 -32t-20 -47zM1557 191v-148q0 -51 -55 -51
q-52 0 -52 51v148h-284q-54 0 -80.5 20.5t-26.5 61.5q0 32 23 78l231 456q19 37 47 37q22 0 40 -13.5t18 -35.5q0 -19 -19 -51l-229 -451h280v293q0 53 52 53q55 0 55 -53v-293h43q51 0 51 -53q0 -49 -51 -49h-43z" />
    <glyph glyph-name="questiondown" unicode="&#xbf;" horiz-adv-x="903" 
d="M518 1065q39 0 65.5 -26.5t26.5 -65.5t-26.5 -66.5t-65.5 -27.5q-40 0 -67 27t-27 67q0 39 27.5 65.5t66.5 26.5zM455 586v108q0 64 63 64q64 0 64 -64v-119q0 -116 -56 -199t-153 -149q-95 -67 -130.5 -127.5t-35.5 -130.5q0 -97 69.5 -156t180.5 -59q138 0 245 96
q31 27 40.5 32t25.5 5q22 0 39.5 -15.5t17.5 -41.5q0 -60 -112.5 -129.5t-259.5 -69.5q-169 0 -273 93t-104 241q0 94 48.5 178.5t174.5 178.5q84 63 120 120.5t36 143.5z" />
    <glyph glyph-name="Agrave" unicode="&#xc0;" horiz-adv-x="1171" 
d="M895 410h-612q-85 -277 -107 -367q-11 -49 -53 -49q-74 0 -74 57q0 39 63 244q104 337 174.5 525.5t171.5 399.5q73 152 90 165.5t42 13.5h14q26 0 41 -14t108 -211.5t170 -422t153 -500.5q46 -167 46 -202q0 -55 -71 -55q-43 0 -56 49q-16 84 -100 367zM858 535
q-111 367 -262 679q-157 -315 -274 -679h536zM606 1569l-198 157q-41 33 -41 60q0 26 18 43.5t43 17.5q23 0 55 -29l203 -157q39 -30 39 -58q0 -21 -18 -42t-41 -21q-20 0 -60 29z" />
    <glyph glyph-name="Aacute" unicode="&#xc1;" horiz-adv-x="1171" 
d="M895 410h-612q-85 -277 -107 -367q-11 -49 -53 -49q-74 0 -74 57q0 39 63 244q104 337 174.5 525.5t171.5 399.5q73 152 90 165.5t42 13.5h14q26 0 41 -14t108 -211.5t170 -422t153 -500.5q46 -167 46 -202q0 -55 -71 -55q-43 0 -56 49q-16 84 -100 367zM858 535
q-111 367 -262 679q-157 -315 -274 -679h536zM760 1726l-201 -157q-37 -29 -55 -29q-25 0 -44 18t-19 45q0 26 41 58l194 153q42 33 62 33q23 0 42 -17.5t19 -43.5t-39 -60z" />
    <glyph glyph-name="Acircumflex" unicode="&#xc2;" horiz-adv-x="1171" 
d="M895 410h-612q-85 -277 -107 -367q-11 -49 -53 -49q-74 0 -74 57q0 39 63 244q104 337 174.5 525.5t171.5 399.5q73 152 90 165.5t42 13.5h14q26 0 41 -14t108 -211.5t170 -422t153 -500.5q46 -167 46 -202q0 -55 -71 -55q-43 0 -56 49q-16 84 -100 367zM858 535
q-111 367 -262 679q-157 -315 -274 -679h536zM600 1681l-188 -123q-31 -20 -52 -20q-18 0 -33.5 14t-15.5 39q0 19 9.5 32t35.5 30l179 116q39 25 65 25q27 0 66 -25l172 -110q51 -33 51 -64q0 -23 -14.5 -40t-34.5 -17q-19 0 -41 14z" />
    <glyph glyph-name="Atilde" unicode="&#xc3;" horiz-adv-x="1171" 
d="M895 410h-612q-85 -277 -107 -367q-11 -49 -53 -49q-74 0 -74 57q0 39 63 244q104 337 174.5 525.5t171.5 399.5q73 152 90 165.5t42 13.5h14q26 0 41 -14t108 -211.5t170 -422t153 -500.5q46 -167 46 -202q0 -55 -71 -55q-43 0 -56 49q-16 84 -100 367zM858 535
q-111 367 -262 679q-157 -315 -274 -679h536zM700 1540q-41 0 -119 31q-79 30 -116 30q-34 0 -67 -30q-34 -31 -54 -31q-23 0 -41.5 14.5t-18.5 40.5q0 37 57.5 79t116.5 42q44 0 120 -30q75 -31 118 -31q32 0 66 31q34 30 53 30q25 0 42 -14.5t17 -40.5q0 -37 -57 -79
t-117 -42z" />
    <glyph glyph-name="Adieresis" unicode="&#xc4;" horiz-adv-x="1171" 
d="M895 410h-612q-85 -277 -107 -367q-11 -49 -53 -49q-74 0 -74 57q0 39 63 244q104 337 174.5 525.5t171.5 399.5q73 152 90 165.5t42 13.5h14q26 0 41 -14t108 -211.5t170 -422t153 -500.5q46 -167 46 -202q0 -55 -71 -55q-43 0 -56 49q-16 84 -100 367zM858 535
q-111 367 -262 679q-157 -315 -274 -679h536zM774 1540q-35 0 -60.5 25.5t-25.5 60.5t25.5 60.5t60.5 25.5q37 0 61.5 -24.5t24.5 -61.5t-24.5 -61.5t-61.5 -24.5zM411 1540q-35 0 -60.5 25.5t-25.5 60.5t25.5 60.5t60.5 25.5q37 0 61.5 -24.5t24.5 -61.5t-24.5 -61.5
t-61.5 -24.5z" />
    <glyph glyph-name="Aring" unicode="&#xc5;" horiz-adv-x="1171" 
d="M895 412h-612q-83 -271 -107 -369q-11 -49 -53 -49q-74 0 -74 57t143 500t330 797q-49 21 -79.5 68t-30.5 106q0 78 55 134t129 56t129 -56t55 -134q0 -59 -31 -106t-79 -68q192 -382 322 -811t130 -488q0 -55 -71 -55q-43 0 -56 49q-16 81 -100 369zM596 1636
q-46 0 -78.5 -34t-32.5 -80q0 -47 32.5 -81t78.5 -34t78.5 34t32.5 81q0 46 -32.5 80t-78.5 34zM858 535q-111 367 -262 679q-157 -315 -274 -679h536z" />
    <glyph glyph-name="AE" unicode="&#xc6;" horiz-adv-x="1747" 
d="M899 408h-547l-59 -104q-110 -191 -143 -257q-14 -26 -27.5 -39.5t-36.5 -13.5q-25 0 -47.5 14.5t-22.5 40.5q0 14 6 29q16 39 94.5 179.5t187 324.5t205.5 331t206.5 293.5t127 161.5t33 20t37.5 5h686q66 0 66 -64q0 -63 -66 -63h-536q-35 0 -35 -39v-439h506
q63 0 63 -65q0 -61 -63 -61h-506v-504q0 -31 27 -31h544q66 0 66 -61q0 -66 -66 -66h-563q-65 0 -101 35t-36 100v273zM899 535v712q-240 -314 -475 -712h475z" />
    <glyph glyph-name="Ccedilla" unicode="&#xc7;" horiz-adv-x="1190" 
d="M631 -18q-256 19 -397.5 212t-141.5 502q0 320 170.5 518.5t439.5 198.5q168 0 284 -61t116 -111q0 -28 -14.5 -46.5t-40.5 -18.5q-23 0 -66 30q-121 86 -279 86q-216 0 -348.5 -163.5t-132.5 -432.5q0 -278 126.5 -437t334.5 -159q85 0 164.5 27.5t171.5 101.5
q28 23 51 23t37 -19t14 -40q0 -47 -125 -124.5t-272 -86.5l-41 -84q18 4 51 4q51 0 87 -30t36 -93q0 -73 -53.5 -117.5t-143.5 -44.5q-68 0 -103.5 21t-35.5 47q0 18 10.5 30.5t28.5 12.5q14 0 23 -4q52 -23 90 -23q39 0 59.5 18.5t20.5 47.5q0 31 -19.5 46t-58.5 15
q-20 0 -40 -3q-21 -3 -38 -3q-27 0 -27 24q0 17 15 43z" />
    <glyph glyph-name="Egrave" unicode="&#xc8;" horiz-adv-x="1032" 
d="M313 788h506q64 0 64 -65q0 -61 -64 -61h-506v-504q0 -31 27 -31h545q65 0 65 -61q0 -66 -65 -66h-563q-65 0 -101.5 35t-36.5 100v1102q0 69 35.5 112.5t114.5 43.5h551q65 0 65 -64q0 -63 -65 -63h-537q-15 0 -25 -11t-10 -28v-439zM614 1569l-198 157q-41 33 -41 60
q0 26 18 43.5t43 17.5q23 0 55 -29l203 -157q39 -30 39 -58q0 -21 -18 -42t-41 -21q-20 0 -60 29z" />
    <glyph glyph-name="Eacute" unicode="&#xc9;" horiz-adv-x="1032" 
d="M313 788h506q64 0 64 -65q0 -61 -64 -61h-506v-504q0 -31 27 -31h545q65 0 65 -61q0 -66 -65 -66h-563q-65 0 -101.5 35t-36.5 100v1102q0 69 35.5 112.5t114.5 43.5h551q65 0 65 -64q0 -63 -65 -63h-537q-15 0 -25 -11t-10 -28v-439zM770 1726l-201 -157
q-37 -29 -55 -29q-25 0 -44 18t-19 45q0 26 41 58l194 153q42 33 62 33q23 0 42 -17.5t19 -43.5t-39 -60z" />
    <glyph glyph-name="Ecircumflex" unicode="&#xca;" horiz-adv-x="1032" 
d="M313 788h506q64 0 64 -65q0 -61 -64 -61h-506v-504q0 -31 27 -31h545q65 0 65 -61q0 -66 -65 -66h-563q-65 0 -101.5 35t-36.5 100v1102q0 69 35.5 112.5t114.5 43.5h551q65 0 65 -64q0 -63 -65 -63h-537q-15 0 -25 -11t-10 -28v-439zM571 1681l-188 -123
q-31 -20 -52 -20q-18 0 -33.5 14t-15.5 39q0 19 9.5 32t35.5 30l179 116q39 25 65 25q27 0 66 -25l172 -110q51 -33 51 -64q0 -23 -14.5 -40t-34.5 -17q-19 0 -41 14z" />
    <glyph glyph-name="Edieresis" unicode="&#xcb;" horiz-adv-x="1032" 
d="M313 788h506q64 0 64 -65q0 -61 -64 -61h-506v-504q0 -31 27 -31h545q65 0 65 -61q0 -66 -65 -66h-563q-65 0 -101.5 35t-36.5 100v1102q0 69 35.5 112.5t114.5 43.5h551q65 0 65 -64q0 -63 -65 -63h-537q-15 0 -25 -11t-10 -28v-439zM768 1540q-35 0 -60.5 25.5
t-25.5 60.5t25.5 60.5t60.5 25.5q37 0 61.5 -24.5t24.5 -61.5t-24.5 -61.5t-61.5 -24.5zM405 1540q-35 0 -60.5 25.5t-25.5 60.5t25.5 60.5t60.5 25.5q37 0 61.5 -24.5t24.5 -61.5t-24.5 -61.5t-61.5 -24.5z" />
    <glyph glyph-name="Igrave" unicode="&#xcc;" horiz-adv-x="498" 
d="M313 59q0 -65 -65 -65q-64 0 -64 65v1276q0 64 64 64q65 0 65 -64v-1276zM274 1569l-198 157q-41 33 -41 60q0 26 18 43.5t43 17.5q23 0 55 -29l203 -157q39 -30 39 -58q0 -21 -18 -42t-41 -21q-20 0 -60 29z" />
    <glyph glyph-name="Iacute" unicode="&#xcd;" horiz-adv-x="498" 
d="M313 59q0 -65 -65 -65q-64 0 -64 65v1276q0 64 64 64q65 0 65 -64v-1276zM430 1726l-201 -157q-37 -29 -55 -29q-25 0 -44 18t-19 45q0 26 41 58l194 153q42 33 62 33q23 0 42 -17.5t19 -43.5t-39 -60z" />
    <glyph glyph-name="Icircumflex" unicode="&#xce;" horiz-adv-x="498" 
d="M313 59q0 -65 -65 -65q-64 0 -64 65v1276q0 64 64 64q65 0 65 -64v-1276zM245 1681l-188 -123q-31 -20 -52 -20q-18 0 -33.5 14t-15.5 39q0 19 9.5 32t35.5 30l179 116q39 25 65 25q27 0 66 -25l172 -110q51 -33 51 -64q0 -23 -14.5 -40t-34.5 -17q-19 0 -41 14z" />
    <glyph glyph-name="Idieresis" unicode="&#xcf;" horiz-adv-x="498" 
d="M313 59q0 -65 -65 -65q-64 0 -64 65v1276q0 64 64 64q65 0 65 -64v-1276zM429 1540q-35 0 -60.5 25.5t-25.5 60.5t25.5 60.5t60.5 25.5q37 0 61.5 -24.5t24.5 -61.5t-24.5 -61.5t-61.5 -24.5zM66 1540q-35 0 -60.5 25.5t-25.5 60.5t25.5 60.5t60.5 25.5q37 0 61.5 -24.5
t24.5 -61.5t-24.5 -61.5t-61.5 -24.5z" />
    <glyph glyph-name="Eth" unicode="&#xd0;" horiz-adv-x="1311" 
d="M184 664h-86q-65 0 -65 61t65 61h86v471q0 65 36.5 100.5t101.5 35.5h258q299 0 469 -180t170 -478q0 -331 -172.5 -533t-466.5 -202h-258q-65 0 -101.5 35t-36.5 100v529zM313 664v-506q0 -31 27 -31h246q242 0 373 161t131 437q0 256 -129 398.5t-375 142.5h-246
q-27 0 -27 -31v-449h318q65 0 65 -61t-65 -61h-318z" />
    <glyph glyph-name="Ntilde" unicode="&#xd1;" horiz-adv-x="1360" 
d="M1176 96q0 -45 -29.5 -73.5t-77.5 -28.5q-62 0 -94 57l-670 1192v-1186q0 -63 -59 -63q-62 0 -62 63v1231q0 54 30 82.5t77 28.5q66 0 96 -56l668 -1189v1181q0 64 59 64q62 0 62 -64v-1239zM833 1540q-41 0 -119 31q-79 30 -116 30q-34 0 -67 -30q-34 -31 -54 -31
q-23 0 -41.5 14.5t-18.5 40.5q0 37 57.5 79t116.5 42q44 0 120 -30q75 -31 118 -31q32 0 66 31q34 30 53 30q25 0 42 -14.5t17 -40.5q0 -37 -57 -79t-117 -42z" />
    <glyph glyph-name="Ograve" unicode="&#xd2;" horiz-adv-x="1356" 
d="M680 -20q-270 0 -429 201.5t-159 514.5q0 320 159.5 518.5t428.5 198.5t426.5 -201t157.5 -516q0 -311 -157.5 -513.5t-426.5 -202.5zM678 1290q-212 0 -334.5 -167t-122.5 -427q0 -259 124.5 -426.5t332.5 -167.5q212 0 334.5 168t122.5 426t-122.5 426t-334.5 168z
M682 1569l-198 157q-41 33 -41 60q0 26 18 43.5t43 17.5q23 0 55 -29l203 -157q39 -30 39 -58q0 -21 -18 -42t-41 -21q-20 0 -60 29z" />
    <glyph glyph-name="Oacute" unicode="&#xd3;" horiz-adv-x="1356" 
d="M680 -20q-270 0 -429 201.5t-159 514.5q0 320 159.5 518.5t428.5 198.5t426.5 -201t157.5 -516q0 -311 -157.5 -513.5t-426.5 -202.5zM678 1290q-212 0 -334.5 -167t-122.5 -427q0 -259 124.5 -426.5t332.5 -167.5q212 0 334.5 168t122.5 426t-122.5 426t-334.5 168z
M858 1726l-201 -157q-37 -29 -55 -29q-25 0 -44 18t-19 45q0 26 41 58l194 153q42 33 62 33q23 0 42 -17.5t19 -43.5t-39 -60z" />
    <glyph glyph-name="Ocircumflex" unicode="&#xd4;" horiz-adv-x="1356" 
d="M680 -20q-270 0 -429 201.5t-159 514.5q0 320 159.5 518.5t428.5 198.5t426.5 -201t157.5 -516q0 -311 -157.5 -513.5t-426.5 -202.5zM678 1290q-212 0 -334.5 -167t-122.5 -427q0 -259 124.5 -426.5t332.5 -167.5q212 0 334.5 168t122.5 426t-122.5 426t-334.5 168z
M676 1681l-188 -123q-31 -20 -52 -20q-18 0 -33.5 14t-15.5 39q0 19 9.5 32t35.5 30l179 116q39 25 65 25q27 0 66 -25l172 -110q51 -33 51 -64q0 -23 -14.5 -40t-34.5 -17q-19 0 -41 14z" />
    <glyph glyph-name="Otilde" unicode="&#xd5;" horiz-adv-x="1356" 
d="M680 -20q-270 0 -429 201.5t-159 514.5q0 320 159.5 518.5t428.5 198.5t426.5 -201t157.5 -516q0 -311 -157.5 -513.5t-426.5 -202.5zM678 1290q-212 0 -334.5 -167t-122.5 -427q0 -259 124.5 -426.5t332.5 -167.5q212 0 334.5 168t122.5 426t-122.5 426t-334.5 168z
M797 1540q-41 0 -119 31q-79 30 -116 30q-34 0 -67 -30q-34 -31 -54 -31q-23 0 -41.5 14.5t-18.5 40.5q0 37 57.5 79t116.5 42q44 0 120 -30q75 -31 118 -31q32 0 66 31q34 30 53 30q25 0 42 -14.5t17 -40.5q0 -37 -57 -79t-117 -42z" />
    <glyph glyph-name="Odieresis" unicode="&#xd6;" horiz-adv-x="1356" 
d="M680 -20q-270 0 -429 201.5t-159 514.5q0 320 159.5 518.5t428.5 198.5t426.5 -201t157.5 -516q0 -311 -157.5 -513.5t-426.5 -202.5zM678 1290q-212 0 -334.5 -167t-122.5 -427q0 -259 124.5 -426.5t332.5 -167.5q212 0 334.5 168t122.5 426t-122.5 426t-334.5 168z
M852 1540q-35 0 -60.5 25.5t-25.5 60.5t25.5 60.5t60.5 25.5q37 0 61.5 -24.5t24.5 -61.5t-24.5 -61.5t-61.5 -24.5zM489 1540q-35 0 -60.5 25.5t-25.5 60.5t25.5 60.5t60.5 25.5q37 0 61.5 -24.5t24.5 -61.5t-24.5 -61.5t-61.5 -24.5z" />
    <glyph glyph-name="multiply" unicode="&#xd7;" horiz-adv-x="1085" 
d="M543 438l-316 -315q-27 -27 -45 -27q-17 0 -38 18t-21 42q0 22 24 47l316 315l-318 316q-24 24 -24 49q0 23 20 41t37 18q24 0 49 -27l316 -317l315 315q29 29 45 29q20 0 41 -18t21 -41q0 -22 -25 -47l-317 -318l317 -315q25 -25 25 -49q0 -18 -18.5 -38t-39.5 -20
q-25 0 -49 25z" />
    <glyph glyph-name="Oslash" unicode="&#xd8;" horiz-adv-x="1356" 
d="M289 -80q-20 -35 -47 -35q-17 0 -31 11q-29 17 -29 41q0 15 13 38l94 162q-94 96 -145.5 241.5t-51.5 317.5q0 312 164 514.5t424 202.5q163 0 297 -82l82 139q22 37 45 37q18 0 39.5 -16t21.5 -37q0 -14 -12 -37l-90 -155q100 -103 150.5 -250t50.5 -316
q0 -311 -157.5 -513.5t-426.5 -202.5q-174 0 -307 88zM356 254l557 967q-97 69 -235 69q-212 0 -334.5 -167t-122.5 -427q0 -136 33.5 -246.5t101.5 -195.5zM995 1145l-559 -969q100 -74 242 -74q212 0 334.5 168t122.5 426q0 139 -35 251t-105 198z" />
    <glyph glyph-name="Ugrave" unicode="&#xd9;" horiz-adv-x="1319" 
d="M1139 438q0 -208 -134 -333t-348 -125q-212 0 -344.5 125t-132.5 333v897q0 64 64 64q65 0 65 -64v-897q0 -155 94.5 -245.5t253.5 -90.5q157 0 255 90.5t98 245.5v897q0 64 63 64q66 0 66 -64v-897zM692 1569l-198 157q-41 33 -41 60q0 26 18 43.5t43 17.5q23 0 55 -29
l203 -157q39 -30 39 -58q0 -21 -18 -42t-41 -21q-20 0 -60 29z" />
    <glyph glyph-name="Uacute" unicode="&#xda;" horiz-adv-x="1319" 
d="M1139 438q0 -208 -134 -333t-348 -125q-212 0 -344.5 125t-132.5 333v897q0 64 64 64q65 0 65 -64v-897q0 -155 94.5 -245.5t253.5 -90.5q157 0 255 90.5t98 245.5v897q0 64 63 64q66 0 66 -64v-897zM844 1726l-201 -157q-37 -29 -55 -29q-25 0 -44 18t-19 45q0 26 41 58
l194 153q42 33 62 33q23 0 42 -17.5t19 -43.5t-39 -60z" />
    <glyph glyph-name="Ucircumflex" unicode="&#xdb;" horiz-adv-x="1319" 
d="M1139 438q0 -208 -134 -333t-348 -125q-212 0 -344.5 125t-132.5 333v897q0 64 64 64q65 0 65 -64v-897q0 -155 94.5 -245.5t253.5 -90.5q157 0 255 90.5t98 245.5v897q0 64 63 64q66 0 66 -64v-897zM670 1681l-188 -123q-31 -20 -52 -20q-18 0 -33.5 14t-15.5 39
q0 19 9.5 32t35.5 30l179 116q39 25 65 25q27 0 66 -25l172 -110q51 -33 51 -64q0 -23 -14.5 -40t-34.5 -17q-19 0 -41 14z" />
    <glyph glyph-name="Udieresis" unicode="&#xdc;" horiz-adv-x="1319" 
d="M1139 438q0 -208 -134 -333t-348 -125q-212 0 -344.5 125t-132.5 333v897q0 64 64 64q65 0 65 -64v-897q0 -155 94.5 -245.5t253.5 -90.5q157 0 255 90.5t98 245.5v897q0 64 63 64q66 0 66 -64v-897zM844 1540q-35 0 -60.5 25.5t-25.5 60.5t25.5 60.5t60.5 25.5
q37 0 61.5 -24.5t24.5 -61.5t-24.5 -61.5t-61.5 -24.5zM481 1540q-35 0 -60.5 25.5t-25.5 60.5t25.5 60.5t60.5 25.5q37 0 61.5 -24.5t24.5 -61.5t-24.5 -61.5t-61.5 -24.5z" />
    <glyph glyph-name="Yacute" unicode="&#xdd;" horiz-adv-x="1028" 
d="M565 547v-490q0 -63 -63 -63q-66 0 -66 63v488q-159 151 -273 386t-114 406q0 62 66 62q63 0 63 -64q0 -147 90.5 -341t231.5 -343q142 144 243 348t107 338q2 35 17.5 48.5t47.5 13.5q64 0 64 -66q0 -149 -124.5 -390.5t-289.5 -395.5zM706 1726l-201 -157
q-37 -29 -55 -29q-25 0 -44 18t-19 45q0 26 41 58l194 153q42 33 62 33q23 0 42 -17.5t19 -43.5t-39 -60z" />
    <glyph glyph-name="Thorn" unicode="&#xde;" horiz-adv-x="1108" 
d="M313 59q0 -65 -65 -65q-64 0 -64 65v1276q0 64 64 64q65 0 65 -64v-229h283q212 0 321 -104.5t109 -305.5q0 -183 -120.5 -291t-323.5 -108h-269v-238zM313 424h279q143 0 224 71.5t81 200.5q0 145 -71.5 214t-231.5 69h-281v-555z" />
    <glyph glyph-name="germandbls" unicode="&#xdf;" horiz-adv-x="1059" 
d="M692 803q152 -34 234 -140t82 -266q0 -188 -120.5 -302.5t-299.5 -114.5q-82 0 -130 18.5t-48 55.5q0 18 14 43.5t40 25.5q13 0 30 -6q48 -17 84 -17q144 0 223.5 78.5t79.5 222.5q0 127 -76.5 210.5t-210.5 105.5q-62 9 -62 65q0 50 41 66q111 44 166.5 119.5
t55.5 183.5q0 121 -68 192.5t-178 71.5q-133 0 -201.5 -83.5t-68.5 -229.5v-1043q0 -65 -64 -65q-63 0 -63 65v1053q0 191 104 307.5t293 116.5q170 0 271.5 -104.5t101.5 -278.5q0 -114 -63.5 -211.5t-166.5 -138.5z" />
    <glyph glyph-name="agrave" unicode="&#xe0;" 
d="M965 57q0 -63 -64 -63q-63 0 -63 63v99q-52 -88 -131 -132t-185 -44q-202 0 -316 149t-114 395q0 242 116.5 391.5t328.5 149.5q101 0 176 -40.5t125 -121.5v86q0 62 63 62q64 0 64 -62v-932zM838 623q0 142 -84 231.5t-213 89.5q-152 0 -237 -119t-85 -301
q0 -197 81 -310.5t241 -113.5q131 0 214 89.5t83 230.5v203zM561 1262l-198 157q-41 33 -41 60q0 26 18 43.5t43 17.5q23 0 55 -29l203 -157q39 -30 39 -58q0 -21 -18 -42t-41 -21q-20 0 -60 29z" />
    <glyph glyph-name="aacute" unicode="&#xe1;" 
d="M965 57q0 -63 -64 -63q-63 0 -63 63v99q-52 -88 -131 -132t-185 -44q-202 0 -316 149t-114 395q0 242 116.5 391.5t328.5 149.5q101 0 176 -40.5t125 -121.5v86q0 62 63 62q64 0 64 -62v-932zM838 623q0 142 -84 231.5t-213 89.5q-152 0 -237 -119t-85 -301
q0 -197 81 -310.5t241 -113.5q131 0 214 89.5t83 230.5v203zM760 1419l-201 -157q-37 -29 -55 -29q-25 0 -44 18t-19 45q0 26 41 58l194 153q42 33 62 33q23 0 42 -17.5t19 -43.5t-39 -60z" />
    <glyph glyph-name="acircumflex" unicode="&#xe2;" 
d="M965 57q0 -63 -64 -63q-63 0 -63 63v99q-52 -88 -131 -132t-185 -44q-202 0 -316 149t-114 395q0 242 116.5 391.5t328.5 149.5q101 0 176 -40.5t125 -121.5v86q0 62 63 62q64 0 64 -62v-932zM838 623q0 142 -84 231.5t-213 89.5q-152 0 -237 -119t-85 -301
q0 -197 81 -310.5t241 -113.5q131 0 214 89.5t83 230.5v203zM541 1374l-188 -123q-31 -20 -52 -20q-18 0 -33.5 14t-15.5 39q0 19 9.5 32t35.5 30l179 116q39 25 65 25q27 0 66 -25l172 -110q51 -33 51 -64q0 -23 -14.5 -40t-34.5 -17q-19 0 -41 14z" />
    <glyph glyph-name="atilde" unicode="&#xe3;" 
d="M965 57q0 -63 -64 -63q-63 0 -63 63v99q-52 -88 -131 -132t-185 -44q-202 0 -316 149t-114 395q0 242 116.5 391.5t328.5 149.5q101 0 176 -40.5t125 -121.5v86q0 62 63 62q64 0 64 -62v-932zM838 623q0 142 -84 231.5t-213 89.5q-152 0 -237 -119t-85 -301
q0 -197 81 -310.5t241 -113.5q131 0 214 89.5t83 230.5v203zM674 1233q-41 0 -119 31q-79 30 -116 30q-34 0 -67 -30q-34 -31 -54 -31q-23 0 -41.5 14.5t-18.5 40.5q0 37 57.5 79t116.5 42q44 0 120 -30q75 -31 118 -31q32 0 66 31q34 30 53 30q25 0 42 -14.5t17 -40.5
q0 -37 -57 -79t-117 -42z" />
    <glyph glyph-name="adieresis" unicode="&#xe4;" 
d="M965 57q0 -63 -64 -63q-63 0 -63 63v99q-52 -88 -131 -132t-185 -44q-202 0 -316 149t-114 395q0 242 116.5 391.5t328.5 149.5q101 0 176 -40.5t125 -121.5v86q0 62 63 62q64 0 64 -62v-932zM838 623q0 142 -84 231.5t-213 89.5q-152 0 -237 -119t-85 -301
q0 -197 81 -310.5t241 -113.5q131 0 214 89.5t83 230.5v203zM738 1233q-35 0 -60.5 25.5t-25.5 60.5t25.5 60.5t60.5 25.5q37 0 61.5 -24.5t24.5 -61.5t-24.5 -61.5t-61.5 -24.5zM375 1233q-35 0 -60.5 25.5t-25.5 60.5t25.5 60.5t60.5 25.5q37 0 61.5 -24.5t24.5 -61.5
t-24.5 -61.5t-61.5 -24.5z" />
    <glyph glyph-name="aring" unicode="&#xe5;" 
d="M965 57q0 -63 -64 -63q-63 0 -63 63v99q-52 -88 -131 -132t-185 -44q-202 0 -316 149t-114 395q0 242 116.5 391.5t328.5 149.5q101 0 176 -40.5t125 -121.5v86q0 62 63 62q64 0 64 -62v-932zM838 623q0 142 -84 231.5t-213 89.5q-152 0 -237 -119t-85 -301
q0 -197 81 -310.5t241 -113.5q131 0 214 89.5t83 230.5v203zM564 1238q-75 0 -130 53.5t-55 131.5q0 79 55 132t130 53t130 -53t55 -132q0 -78 -55.5 -131.5t-129.5 -53.5zM564 1533q-46 0 -78 -30.5t-32 -79.5q0 -48 32 -79t78 -31q45 0 77.5 31t32.5 79t-32.5 79t-77.5 31
z" />
    <glyph glyph-name="ae" unicode="&#xe6;" horiz-adv-x="1731" 
d="M862 836q66 114 161 171.5t218 57.5q184 0 294 -123t110 -328q0 -54 -25.5 -85t-71.5 -31h-639q0 -178 95 -288t245 -110q134 0 264 87q9 6 23 6q26 0 41.5 -21.5t15.5 -46.5q0 -41 -106 -93t-240 -52q-145 0 -247 68.5t-162 205.5q-68 -137 -180 -205.5t-246 -68.5
q-160 0 -249 87.5t-89 202.5q0 192 162 278.5t546 86.5v31q0 114 -72 196t-206 82q-133 0 -256 -86q-44 -31 -62 -31t-35.5 15t-17.5 43q0 23 15.5 42.5t77.5 57.5t134.5 59t141.5 21q138 0 228 -57.5t132 -171.5zM1518 616q0 143 -75.5 235.5t-205.5 92.5
q-136 0 -227 -90.5t-101 -237.5h609zM782 516q-289 0 -435 -52t-146 -188q0 -73 56.5 -124.5t158.5 -51.5q154 0 260 122.5t106 293.5z" />
    <glyph glyph-name="ccedilla" unicode="&#xe7;" horiz-adv-x="987" 
d="M905 899q0 -25 -18 -44t-43 -19q-18 0 -56 28q-66 48 -118 64t-109 16q-153 0 -247.5 -114t-94.5 -308t91.5 -308t244.5 -114q124 0 236 86q38 29 57 29q26 0 42.5 -21t16.5 -44q0 -47 -102 -103.5t-213 -64.5l-43 -84q22 4 47 4q65 0 97 -36t32 -91q0 -71 -50 -114.5
t-143 -43.5q-68 0 -105.5 21t-37.5 47q0 18 11 30.5t26 12.5q14 0 22 -4q46 -23 93 -23q41 0 61.5 16.5t20.5 49.5q0 31 -20 46t-60 15q-20 0 -39 -2t-33 -2q-31 0 -31 29q0 16 13 38l47 93q-189 17 -298.5 163.5t-109.5 374.5q0 245 133.5 394t339.5 149q141 0 240.5 -59
t99.5 -107z" />
    <glyph glyph-name="egrave" unicode="&#xe8;" horiz-adv-x="1042" 
d="M221 483q0 -167 96 -275t244 -108q63 0 128 20.5t112 51.5q32 21 47 21q24 0 40.5 -21t16.5 -45q0 -45 -107.5 -96t-238.5 -51q-215 0 -341 145t-126 387q0 240 124 396.5t337 156.5q188 0 295.5 -126.5t107.5 -338.5q0 -57 -25.5 -87t-70.5 -30h-639zM829 602
q0 152 -74.5 247t-205.5 95q-137 0 -225 -93.5t-99 -248.5h604zM551 1261l-198 157q-41 33 -41 60q0 26 18 43.5t43 17.5q23 0 55 -29l203 -157q39 -30 39 -58q0 -21 -18 -42t-41 -21q-20 0 -60 29z" />
    <glyph glyph-name="eacute" unicode="&#xe9;" horiz-adv-x="1042" 
d="M221 483q0 -167 96 -275t244 -108q63 0 128 20.5t112 51.5q32 21 47 21q24 0 40.5 -21t16.5 -45q0 -45 -107.5 -96t-238.5 -51q-215 0 -341 145t-126 387q0 240 124 396.5t337 156.5q188 0 295.5 -126.5t107.5 -338.5q0 -57 -25.5 -87t-70.5 -30h-639zM829 602
q0 152 -74.5 247t-205.5 95q-137 0 -225 -93.5t-99 -248.5h604zM725 1419l-201 -157q-37 -29 -55 -29q-25 0 -44 18t-19 45q0 26 41 58l194 153q42 33 62 33q23 0 42 -17.5t19 -43.5t-39 -60z" />
    <glyph glyph-name="ecircumflex" unicode="&#xea;" horiz-adv-x="1042" 
d="M221 483q0 -167 96 -275t244 -108q63 0 128 20.5t112 51.5q32 21 47 21q24 0 40.5 -21t16.5 -45q0 -45 -107.5 -96t-238.5 -51q-215 0 -341 145t-126 387q0 240 124 396.5t337 156.5q188 0 295.5 -126.5t107.5 -338.5q0 -57 -25.5 -87t-70.5 -30h-639zM829 602
q0 152 -74.5 247t-205.5 95q-137 0 -225 -93.5t-99 -248.5h604zM545 1374l-188 -123q-31 -20 -52 -20q-18 0 -33.5 14t-15.5 39q0 19 9.5 32t35.5 30l179 116q39 25 65 25q27 0 66 -25l172 -110q51 -33 51 -64q0 -23 -14.5 -40t-34.5 -17q-19 0 -41 14z" />
    <glyph glyph-name="edieresis" unicode="&#xeb;" horiz-adv-x="1042" 
d="M221 483q0 -167 96 -275t244 -108q63 0 128 20.5t112 51.5q32 21 47 21q24 0 40.5 -21t16.5 -45q0 -45 -107.5 -96t-238.5 -51q-215 0 -341 145t-126 387q0 240 124 396.5t337 156.5q188 0 295.5 -126.5t107.5 -338.5q0 -57 -25.5 -87t-70.5 -30h-639zM829 602
q0 152 -74.5 247t-205.5 95q-137 0 -225 -93.5t-99 -248.5h604zM717 1233q-35 0 -60.5 25.5t-25.5 60.5t25.5 60.5t60.5 25.5q37 0 61.5 -24.5t24.5 -61.5t-24.5 -61.5t-61.5 -24.5zM354 1233q-35 0 -60.5 25.5t-25.5 60.5t25.5 60.5t60.5 25.5q37 0 61.5 -24.5t24.5 -61.5
t-24.5 -61.5t-61.5 -24.5z" />
    <glyph glyph-name="igrave" unicode="&#xec;" horiz-adv-x="430" 
d="M279 57q0 -63 -66 -63q-61 0 -61 63v932q0 62 63 62q64 0 64 -62v-932zM267 1262l-198 157q-41 33 -41 60q0 26 18 43.5t43 17.5q23 0 55 -29l203 -157q39 -30 39 -58q0 -21 -18 -42t-41 -21q-20 0 -60 29z" />
    <glyph glyph-name="iacute" unicode="&#xed;" horiz-adv-x="430" 
d="M279 57q0 -63 -66 -63q-61 0 -61 63v932q0 62 63 62q64 0 64 -62v-932zM393 1419l-201 -157q-37 -29 -55 -29q-25 0 -44 18t-19 45q0 26 41 58l194 153q42 33 62 33q23 0 42 -17.5t19 -43.5t-39 -60z" />
    <glyph glyph-name="icircumflex" unicode="&#xee;" horiz-adv-x="430" 
d="M279 57q0 -63 -66 -63q-61 0 -61 63v932q0 62 63 62q64 0 64 -62v-932zM216 1374l-188 -123q-31 -20 -52 -20q-18 0 -33.5 14t-15.5 39q0 19 9.5 32t35.5 30l179 116q39 25 65 25q27 0 66 -25l172 -110q51 -33 51 -64q0 -23 -14.5 -40t-34.5 -17q-19 0 -41 14z" />
    <glyph glyph-name="idieresis" unicode="&#xef;" horiz-adv-x="430" 
d="M279 57q0 -63 -66 -63q-61 0 -61 63v932q0 62 63 62q64 0 64 -62v-932zM409 1233q-35 0 -60.5 25.5t-25.5 60.5t25.5 60.5t60.5 25.5q37 0 61.5 -24.5t24.5 -61.5t-24.5 -61.5t-61.5 -24.5zM46 1233q-35 0 -60.5 25.5t-25.5 60.5t25.5 60.5t60.5 25.5q37 0 61.5 -24.5
t24.5 -61.5t-24.5 -61.5t-61.5 -24.5z" />
    <glyph glyph-name="eth" unicode="&#xf0;" horiz-adv-x="1100" 
d="M618 1341q195 -154 292.5 -358t97.5 -457q0 -252 -128.5 -399t-330.5 -147t-329.5 147t-127.5 373q0 243 125.5 387.5t319.5 144.5q146 0 251 -84q-53 98 -121.5 178t-152.5 142l-158 -111q-26 -18 -45 -18q-17 0 -35 21t-18 40q0 29 33 49l127 86q-36 26 -158 78
q-47 18 -47 49q0 29 15.5 51.5t41.5 22.5q28 0 100 -33.5t154 -89.5l148 103q26 18 45 18q21 0 37 -23t16 -38q0 -23 -35 -50zM551 911q-156 0 -244 -108.5t-88 -302.5q0 -183 94.5 -291.5t235.5 -108.5q138 0 235 105.5t97 310.5q0 188 -82.5 291.5t-247.5 103.5z" />
    <glyph glyph-name="ntilde" unicode="&#xf1;" horiz-adv-x="1114" 
d="M967 57q0 -63 -62 -63q-65 0 -65 63v602q0 139 -63 212t-185 73q-138 0 -225.5 -98t-87.5 -266v-523q0 -63 -64 -63q-63 0 -63 63v930q0 64 63 64q64 0 64 -64v-108q48 86 135.5 136t193.5 50q175 0 267 -99.5t92 -271.5v-637zM674 1233q-41 0 -119 31q-79 30 -116 30
q-34 0 -67 -30q-34 -31 -54 -31q-23 0 -41.5 14.5t-18.5 40.5q0 37 57.5 79t116.5 42q44 0 120 -30q75 -31 118 -31q32 0 66 31q34 30 53 30q25 0 42 -14.5t17 -40.5q0 -37 -57 -79t-117 -42z" />
    <glyph glyph-name="ograve" unicode="&#xf2;" horiz-adv-x="1100" 
d="M549 -20q-201 0 -329 146.5t-128 395.5q0 259 128 401t329 142q203 0 331 -144t128 -399q0 -248 -128.5 -395t-330.5 -147zM549 944q-140 0 -235 -105t-95 -317q0 -210 99.5 -316t230.5 -106q132 0 232 106t100 316q0 208 -93.5 315t-238.5 107zM594 1262l-198 157
q-41 33 -41 60q0 26 18 43.5t43 17.5q23 0 55 -29l203 -157q39 -30 39 -58q0 -21 -18 -42t-41 -21q-20 0 -60 29z" />
    <glyph glyph-name="oacute" unicode="&#xf3;" horiz-adv-x="1100" 
d="M549 -20q-201 0 -329 146.5t-128 395.5q0 259 128 401t329 142q203 0 331 -144t128 -399q0 -248 -128.5 -395t-330.5 -147zM549 944q-140 0 -235 -105t-95 -317q0 -210 99.5 -316t230.5 -106q132 0 232 106t100 316q0 208 -93.5 315t-238.5 107zM719 1419l-201 -157
q-37 -29 -55 -29q-25 0 -44 18t-19 45q0 26 41 58l194 153q42 33 62 33q23 0 42 -17.5t19 -43.5t-39 -60z" />
    <glyph glyph-name="ocircumflex" unicode="&#xf4;" horiz-adv-x="1100" 
d="M549 -20q-201 0 -329 146.5t-128 395.5q0 259 128 401t329 142q203 0 331 -144t128 -399q0 -248 -128.5 -395t-330.5 -147zM549 944q-140 0 -235 -105t-95 -317q0 -210 99.5 -316t230.5 -106q132 0 232 106t100 316q0 208 -93.5 315t-238.5 107zM537 1374l-188 -123
q-31 -20 -52 -20q-18 0 -33.5 14t-15.5 39q0 19 9.5 32t35.5 30l179 116q39 25 65 25q27 0 66 -25l172 -110q51 -33 51 -64q0 -23 -14.5 -40t-34.5 -17q-19 0 -41 14z" />
    <glyph glyph-name="otilde" unicode="&#xf5;" horiz-adv-x="1100" 
d="M549 -20q-201 0 -329 146.5t-128 395.5q0 259 128 401t329 142q203 0 331 -144t128 -399q0 -248 -128.5 -395t-330.5 -147zM549 944q-140 0 -235 -105t-95 -317q0 -210 99.5 -316t230.5 -106q132 0 232 106t100 316q0 208 -93.5 315t-238.5 107zM659 1233q-41 0 -119 31
q-79 30 -116 30q-34 0 -67 -30q-34 -31 -54 -31q-23 0 -41.5 14.5t-18.5 40.5q0 37 57.5 79t116.5 42q44 0 120 -30q75 -31 118 -31q32 0 66 31q34 30 53 30q25 0 42 -14.5t17 -40.5q0 -37 -57 -79t-117 -42z" />
    <glyph glyph-name="odieresis" unicode="&#xf6;" horiz-adv-x="1100" 
d="M549 -20q-201 0 -329 146.5t-128 395.5q0 259 128 401t329 142q203 0 331 -144t128 -399q0 -248 -128.5 -395t-330.5 -147zM549 944q-140 0 -235 -105t-95 -317q0 -210 99.5 -316t230.5 -106q132 0 232 106t100 316q0 208 -93.5 315t-238.5 107zM721 1233
q-35 0 -60.5 25.5t-25.5 60.5t25.5 60.5t60.5 25.5q37 0 61.5 -24.5t24.5 -61.5t-24.5 -61.5t-61.5 -24.5zM358 1233q-35 0 -60.5 25.5t-25.5 60.5t25.5 60.5t60.5 25.5q37 0 61.5 -24.5t24.5 -61.5t-24.5 -61.5t-61.5 -24.5z" />
    <glyph glyph-name="divide" unicode="&#xf7;" horiz-adv-x="1085" 
d="M543 763q-37 0 -63.5 25.5t-26.5 62.5q0 39 27 64.5t63 25.5q37 0 63.5 -26.5t26.5 -63.5t-27 -62.5t-63 -25.5zM963 460h-840q-66 0 -66 57t66 57h840q65 0 65 -57t-65 -57zM543 93q-37 0 -63.5 25.5t-26.5 62.5q0 39 27 64.5t63 25.5q37 0 63.5 -26.5t26.5 -63.5
t-27 -62.5t-63 -25.5z" />
    <glyph glyph-name="oslash" unicode="&#xf8;" horiz-adv-x="1100" 
d="M209 -51q-26 -37 -47 -37q-13 0 -30 12q-26 20 -26 39q0 16 17 41l90 129q-61 72 -91 169.5t-30 219.5q0 259 128 401t329 142q148 0 260 -80l80 113q23 32 49 32q17 0 36 -16t19 -33t-16 -39l-90 -129q60 -73 90.5 -171t30.5 -220q0 -248 -128.5 -395t-330.5 -147
q-154 0 -260 81zM289 242l448 641q-81 61 -188 61q-140 0 -235 -105t-95 -317q0 -90 17.5 -160t52.5 -120zM811 805l-451 -641q85 -64 189 -64q135 0 233.5 106.5t98.5 315.5q0 87 -17.5 157.5t-52.5 125.5z" />
    <glyph glyph-name="ugrave" unicode="&#xf9;" horiz-adv-x="1114" 
d="M963 57q0 -63 -64 -63q-63 0 -63 63v109q-55 -93 -138.5 -139.5t-195.5 -46.5q-170 0 -262.5 104t-92.5 283v620q0 64 62 64q65 0 65 -64v-612q0 -125 64.5 -200t181.5 -75q147 0 231.5 98.5t84.5 260.5v528q0 64 63 64q64 0 64 -64v-930zM565 1262l-198 157
q-41 33 -41 60q0 26 18 43.5t43 17.5q23 0 55 -29l203 -157q39 -30 39 -58q0 -21 -18 -42t-41 -21q-20 0 -60 29z" />
    <glyph glyph-name="uacute" unicode="&#xfa;" horiz-adv-x="1114" 
d="M963 57q0 -63 -64 -63q-63 0 -63 63v109q-55 -93 -138.5 -139.5t-195.5 -46.5q-170 0 -262.5 104t-92.5 283v620q0 64 62 64q65 0 65 -64v-612q0 -125 64.5 -200t181.5 -75q147 0 231.5 98.5t84.5 260.5v528q0 64 63 64q64 0 64 -64v-930zM758 1419l-201 -157
q-37 -29 -55 -29q-25 0 -44 18t-19 45q0 26 41 58l194 153q42 33 62 33q23 0 42 -17.5t19 -43.5t-39 -60z" />
    <glyph glyph-name="ucircumflex" unicode="&#xfb;" horiz-adv-x="1114" 
d="M963 57q0 -63 -64 -63q-63 0 -63 63v109q-55 -93 -138.5 -139.5t-195.5 -46.5q-170 0 -262.5 104t-92.5 283v620q0 64 62 64q65 0 65 -64v-612q0 -125 64.5 -200t181.5 -75q147 0 231.5 98.5t84.5 260.5v528q0 64 63 64q64 0 64 -64v-930zM551 1374l-188 -123
q-31 -20 -52 -20q-18 0 -33.5 14t-15.5 39q0 19 9.5 32t35.5 30l179 116q39 25 65 25q27 0 66 -25l172 -110q51 -33 51 -64q0 -23 -14.5 -40t-34.5 -17q-19 0 -41 14z" />
    <glyph glyph-name="udieresis" unicode="&#xfc;" horiz-adv-x="1114" 
d="M963 57q0 -63 -64 -63q-63 0 -63 63v109q-55 -93 -138.5 -139.5t-195.5 -46.5q-170 0 -262.5 104t-92.5 283v620q0 64 62 64q65 0 65 -64v-612q0 -125 64.5 -200t181.5 -75q147 0 231.5 98.5t84.5 260.5v528q0 64 63 64q64 0 64 -64v-930zM735 1233q-35 0 -60.5 25.5
t-25.5 60.5t25.5 60.5t60.5 25.5q37 0 61.5 -24.5t24.5 -61.5t-24.5 -61.5t-61.5 -24.5zM372 1233q-35 0 -60.5 25.5t-25.5 60.5t25.5 60.5t60.5 25.5q37 0 61.5 -24.5t24.5 -61.5t-24.5 -61.5t-61.5 -24.5z" />
    <glyph glyph-name="yacute" unicode="&#xfd;" horiz-adv-x="1114" 
d="M963 63q0 -240 -116.5 -367.5t-342.5 -127.5q-78 0 -143 16t-115 39t-64 38t-14 34q0 31 17.5 50t37.5 19q15 0 35 -10q125 -65 250 -65q164 0 246 96t82 274v107q-110 -186 -334 -186q-170 0 -262.5 104t-92.5 283v620q0 64 64 64q63 0 63 -62v-612q0 -125 64 -201
t182 -76q145 0 230.5 98.5t85.5 262.5v526q0 64 63 64q64 0 64 -64v-924zM756 1419l-201 -157q-37 -29 -55 -29q-25 0 -44 18t-19 45q0 26 41 58l194 153q42 33 62 33q23 0 42 -17.5t19 -43.5t-39 -60z" />
    <glyph glyph-name="thorn" unicode="&#xfe;" 
d="M575 100q144 0 233 117t89 315q0 194 -85.5 303t-236.5 109q-131 0 -213.5 -89.5t-82.5 -227.5v-209q0 -141 83 -229.5t213 -88.5zM573 -20q-98 0 -171.5 39.5t-122.5 119.5v-510q0 -61 -66 -61q-61 0 -61 61v1844q0 63 61 63q66 0 66 -63v-562q44 72 123 113t173 41
q211 0 330 -140t119 -393t-122.5 -402.5t-328.5 -149.5z" />
    <glyph glyph-name="ydieresis" unicode="&#xff;" horiz-adv-x="1114" 
d="M963 63q0 -240 -116.5 -367.5t-342.5 -127.5q-78 0 -143 16t-115 39t-64 38t-14 34q0 31 17.5 50t37.5 19q15 0 35 -10q125 -65 250 -65q164 0 246 96t82 274v107q-110 -186 -334 -186q-170 0 -262.5 104t-92.5 283v620q0 64 64 64q63 0 63 -62v-612q0 -125 64 -201
t182 -76q145 0 230.5 98.5t85.5 262.5v526q0 64 63 64q64 0 64 -64v-924zM742 1233q-35 0 -60.5 25.5t-25.5 60.5t25.5 60.5t60.5 25.5q37 0 61.5 -24.5t24.5 -61.5t-24.5 -61.5t-61.5 -24.5zM379 1233q-35 0 -60.5 25.5t-25.5 60.5t25.5 60.5t60.5 25.5q37 0 61.5 -24.5
t24.5 -61.5t-24.5 -61.5t-61.5 -24.5z" />
    <glyph glyph-name="Amacron" unicode="&#x100;" horiz-adv-x="1171" 
d="M895 410h-612q-85 -277 -107 -367q-11 -49 -53 -49q-74 0 -74 57q0 39 63 244q104 337 174.5 525.5t171.5 399.5q73 152 90 165.5t42 13.5h14q26 0 41 -14t108 -211.5t170 -422t153 -500.5q46 -167 46 -202q0 -55 -71 -55q-43 0 -56 49q-16 84 -100 367zM858 535
q-111 367 -262 679q-157 -315 -274 -679h536zM807 1532h-428q-44 0 -58 15.5t-14 41.5t14 42t58 16h428q44 0 59 -15t15 -43q0 -57 -74 -57z" />
    <glyph glyph-name="amacron" unicode="&#x101;" 
d="M965 57q0 -63 -64 -63q-63 0 -63 63v99q-52 -88 -131 -132t-185 -44q-202 0 -316 149t-114 395q0 242 116.5 391.5t328.5 149.5q101 0 176 -40.5t125 -121.5v86q0 62 63 62q64 0 64 -62v-932zM838 623q0 142 -84 231.5t-213 89.5q-152 0 -237 -119t-85 -301
q0 -197 81 -310.5t241 -113.5q131 0 214 89.5t83 230.5v203zM772 1235h-428q-44 0 -58 15.5t-14 41.5t14 42t58 16h428q44 0 59 -15t15 -43q0 -57 -74 -57z" />
    <glyph glyph-name="Abreve" unicode="&#x102;" horiz-adv-x="1171" 
d="M895 410h-612q-85 -277 -107 -367q-11 -49 -53 -49q-74 0 -74 57q0 39 63 244q104 337 174.5 525.5t171.5 399.5q73 152 90 165.5t42 13.5h14q26 0 41 -14t108 -211.5t170 -422t153 -500.5q46 -167 46 -202q0 -55 -71 -55q-43 0 -56 49q-16 84 -100 367zM858 535
q-111 367 -262 679q-157 -315 -274 -679h536zM590 1524q-103 0 -177.5 62t-74.5 124q0 22 17.5 36.5t40.5 14.5q21 0 36 -20q41 -55 59 -72.5t41 -27t58 -9.5q80 0 127 65q30 40 43 52t29 12q22 0 38.5 -14.5t16.5 -36.5q0 -63 -74 -124.5t-180 -61.5z" />
    <glyph glyph-name="abreve" unicode="&#x103;" 
d="M965 57q0 -63 -64 -63q-63 0 -63 63v99q-52 -88 -131 -132t-185 -44q-202 0 -316 149t-114 395q0 242 116.5 391.5t328.5 149.5q101 0 176 -40.5t125 -121.5v86q0 62 63 62q64 0 64 -62v-932zM838 623q0 142 -84 231.5t-213 89.5q-152 0 -237 -119t-85 -301
q0 -197 81 -310.5t241 -113.5q131 0 214 89.5t83 230.5v203zM557 1233q-103 0 -177.5 62t-74.5 124q0 22 17.5 36.5t40.5 14.5q21 0 36 -20q41 -55 59 -72.5t41 -27t58 -9.5q80 0 127 65q30 40 43 52t29 12q22 0 38.5 -14.5t16.5 -36.5q0 -63 -74 -124.5t-180 -61.5z" />
    <glyph glyph-name="Aogonek" unicode="&#x104;" horiz-adv-x="1171" 
d="M895 410h-612q-85 -277 -107 -367q-11 -49 -53 -49q-74 0 -74 57q0 39 63 244q104 337 174.5 525.5t171.5 399.5q73 152 90 165.5t42 13.5h14q26 0 41 -14t108 -211.5t170 -422t153 -500.5q46 -167 46 -202q0 -28 -24 -45q-54 -65 -79.5 -121t-25.5 -88q0 -37 16.5 -55.5
t49.5 -18.5q47 0 95 28q9 5 20 5q38 0 38 -45q0 -33 -54 -57.5t-116 -24.5q-82 0 -122.5 36.5t-40.5 109.5q0 54 32 114t97 125q-10 11 -13 31q-16 84 -100 367zM858 535q-111 367 -262 679q-157 -315 -274 -679h536z" />
    <glyph glyph-name="aogonek" unicode="&#x105;" 
d="M754.5 -115.5q31.5 59.5 95.5 125.5q-12 15 -12 47v99q-52 -88 -131 -132t-185 -44q-202 0 -316 149t-114 395q0 242 116.5 391.5t328.5 149.5q101 0 176 -40.5t125 -121.5v86q0 62 63 62q64 0 64 -62v-932q0 -37 -23 -53q-54 -65 -79 -121t-25 -88q0 -37 16 -55.5
t49 -18.5q47 0 95 28q9 5 20 5q39 0 39 -45q0 -33 -54 -57.5t-116 -24.5q-82 0 -123 36.5t-41 109.5q0 52 31.5 111.5zM838 623q0 142 -84 231.5t-213 89.5q-152 0 -237 -119t-85 -301q0 -197 81 -310.5t241 -113.5q131 0 214 89.5t83 230.5v203z" />
    <glyph glyph-name="Cacute" unicode="&#x106;" horiz-adv-x="1190" 
d="M680 -20q-272 0 -430 194t-158 522q0 320 170.5 518.5t439.5 198.5q165 0 282.5 -60.5t117.5 -113.5q0 -26 -19 -44.5t-39 -18.5q-12 0 -21.5 4t-41.5 26q-121 86 -279 86q-216 0 -348.5 -163.5t-132.5 -432.5q0 -278 126.5 -437t334.5 -159q85 0 164.5 27.5t171.5 101.5
q28 23 51 23t37 -19t14 -40q0 -49 -136 -131t-304 -82zM874 1716l-201 -157q-37 -29 -55 -29q-25 0 -44 18t-19 45q0 26 41 58l194 153q42 33 62 33q23 0 42 -17.5t19 -43.5t-39 -60z" />
    <glyph glyph-name="cacute" unicode="&#x107;" horiz-adv-x="987" 
d="M905 899q0 -25 -18 -44t-43 -19q-18 0 -56 28q-66 48 -118 64t-109 16q-153 0 -247.5 -114t-94.5 -308t91.5 -308t244.5 -114q124 0 236 86q38 29 57 29q26 0 42.5 -21t16.5 -44q0 -48 -111 -109t-245 -61q-207 0 -333 148.5t-126 393.5t133.5 394t339.5 149
q141 0 240.5 -59t99.5 -107zM751 1419l-201 -157q-37 -29 -55 -29q-25 0 -44 18t-19 45q0 26 41 58l194 153q42 33 62 33q23 0 42 -17.5t19 -43.5t-39 -60z" />
    <glyph glyph-name="Ccaron" unicode="&#x10c;" horiz-adv-x="1190" 
d="M680 -20q-272 0 -430 194t-158 522q0 320 170.5 518.5t439.5 198.5q165 0 282.5 -60.5t117.5 -113.5q0 -26 -19 -44.5t-39 -18.5q-12 0 -21.5 4t-41.5 26q-121 86 -279 86q-216 0 -348.5 -163.5t-132.5 -432.5q0 -278 126.5 -437t334.5 -159q85 0 164.5 27.5t171.5 101.5
q28 23 51 23t37 -19t14 -40q0 -49 -136 -131t-304 -82zM678 1639l188 122q32 21 52 21q18 0 33.5 -16.5t15.5 -36.5q0 -19 -9.5 -32t-35.5 -30l-178 -117q-37 -24 -66 -24q-28 0 -65 24l-173 111q-51 33 -51 64q0 23 15 40t36 17q17 0 39 -14z" />
    <glyph glyph-name="ccaron" unicode="&#x10d;" horiz-adv-x="987" 
d="M905 899q0 -25 -18 -44t-43 -19q-18 0 -56 28q-66 48 -118 64t-109 16q-153 0 -247.5 -114t-94.5 -308t91.5 -308t244.5 -114q124 0 236 86q38 29 57 29q26 0 42.5 -21t16.5 -44q0 -48 -111 -109t-245 -61q-207 0 -333 148.5t-126 393.5t133.5 394t339.5 149
q141 0 240.5 -59t99.5 -107zM539 1346l188 122q32 21 52 21q18 0 33.5 -16.5t15.5 -36.5q0 -19 -9.5 -32t-35.5 -30l-178 -117q-37 -24 -66 -24q-28 0 -65 24l-173 111q-51 33 -51 64q0 23 15 40t36 17q17 0 39 -14z" />
    <glyph glyph-name="Dcaron" unicode="&#x10e;" horiz-adv-x="1311" 
d="M580 0h-258q-65 0 -101.5 35t-36.5 100v1122q0 65 36.5 100.5t101.5 35.5h258q299 0 469 -180t170 -478q0 -331 -172.5 -533t-466.5 -202zM586 1266h-246q-27 0 -27 -31v-1077q0 -31 27 -31h246q242 0 373 161t131 437q0 256 -129 398.5t-375 142.5zM602 1639l188 122
q32 21 52 21q18 0 33.5 -16.5t15.5 -36.5q0 -19 -9.5 -32t-35.5 -30l-178 -117q-37 -24 -66 -24q-28 0 -65 24l-173 111q-51 33 -51 64q0 23 15 40t36 17q17 0 39 -14z" />
    <glyph glyph-name="dcaron" unicode="&#x10f;" horiz-adv-x="1190" 
d="M965 57q0 -63 -62 -63q-65 0 -65 63v80q-45 -74 -125 -115.5t-172 -41.5q-213 0 -331 142t-118 394q0 247 122.5 398t326.5 151q95 0 172.5 -41.5t124.5 -118.5v570q0 61 65 61q62 0 62 -61v-1418zM838 623q0 142 -84 231.5t-213 89.5q-141 0 -231.5 -117.5t-90.5 -310.5
q0 -200 85.5 -308t236.5 -108q129 0 213 91.5t84 232.5v199zM1135 1260q-28 0 -42.5 15t-14.5 34q0 14 18 40t18 56q0 17 -6 35q-6 17 -6 33q0 61 68 61q31 0 47 -23t16 -83q0 -62 -28 -115t-70 -53z" />
    <glyph glyph-name="Dcroat" unicode="&#x110;" horiz-adv-x="1311" 
d="M184 664h-86q-65 0 -65 61t65 61h86v471q0 65 36.5 100.5t101.5 35.5h258q299 0 469 -180t170 -478q0 -331 -172.5 -533t-466.5 -202h-258q-65 0 -101.5 35t-36.5 100v529zM313 664v-506q0 -31 27 -31h246q242 0 373 161t131 437q0 256 -129 398.5t-375 142.5h-246
q-27 0 -27 -31v-449h318q65 0 65 -61t-65 -61h-318z" />
    <glyph glyph-name="dcroat" unicode="&#x111;" 
d="M965 57q0 -63 -62 -63q-65 0 -65 63v80q-45 -74 -125 -115.5t-172 -41.5q-213 0 -331 142t-118 394q0 247 122.5 398t326.5 151q95 0 172.5 -41.5t124.5 -118.5v324h-275q-61 0 -61 61q0 60 61 60h275v125q0 61 65 61q62 0 62 -61v-125h71q62 0 62 -60q0 -61 -62 -61h-71
v-1172zM838 623q0 142 -84 231.5t-213 89.5q-141 0 -231.5 -117.5t-90.5 -310.5q0 -200 85.5 -308t236.5 -108q129 0 213 91.5t84 232.5v199z" />
    <glyph glyph-name="Emacron" unicode="&#x112;" horiz-adv-x="1032" 
d="M313 788h506q64 0 64 -65q0 -61 -64 -61h-506v-504q0 -31 27 -31h545q65 0 65 -61q0 -66 -65 -66h-563q-65 0 -101.5 35t-36.5 100v1102q0 69 35.5 112.5t114.5 43.5h551q65 0 65 -64q0 -63 -65 -63h-537q-15 0 -25 -11t-10 -28v-439zM782 1536h-428q-44 0 -58 15.5
t-14 41.5t14 42t58 16h428q44 0 59 -15t15 -43q0 -57 -74 -57z" />
    <glyph glyph-name="emacron" unicode="&#x113;" horiz-adv-x="1042" 
d="M221 483q0 -167 96 -275t244 -108q63 0 128 20.5t112 51.5q32 21 47 21q24 0 40.5 -21t16.5 -45q0 -45 -107.5 -96t-238.5 -51q-215 0 -341 145t-126 387q0 240 124 396.5t337 156.5q188 0 295.5 -126.5t107.5 -338.5q0 -57 -25.5 -87t-70.5 -30h-639zM829 602
q0 152 -74.5 247t-205.5 95q-137 0 -225 -93.5t-99 -248.5h604zM739 1235h-428q-44 0 -58 15.5t-14 41.5t14 42t58 16h428q44 0 59 -15t15 -43q0 -57 -74 -57z" />
    <glyph glyph-name="Ebreve" unicode="&#x114;" horiz-adv-x="1032" 
d="M313 788h506q64 0 64 -65q0 -61 -64 -61h-506v-504q0 -31 27 -31h545q65 0 65 -61q0 -66 -65 -66h-563q-65 0 -101.5 35t-36.5 100v1102q0 69 35.5 112.5t114.5 43.5h551q65 0 65 -64q0 -63 -65 -63h-537q-15 0 -25 -11t-10 -28v-439zM561 1530q-103 0 -177.5 62
t-74.5 124q0 22 17.5 36.5t40.5 14.5q21 0 36 -20q41 -55 59 -72.5t41 -27t58 -9.5q80 0 127 65q30 40 43 52t29 12q22 0 38.5 -14.5t16.5 -36.5q0 -63 -74 -124.5t-180 -61.5z" />
    <glyph glyph-name="ebreve" unicode="&#x115;" horiz-adv-x="1042" 
d="M221 483q0 -167 96 -275t244 -108q63 0 128 20.5t112 51.5q32 21 47 21q24 0 40.5 -21t16.5 -45q0 -45 -107.5 -96t-238.5 -51q-215 0 -341 145t-126 387q0 240 124 396.5t337 156.5q188 0 295.5 -126.5t107.5 -338.5q0 -57 -25.5 -87t-70.5 -30h-639zM829 602
q0 152 -74.5 247t-205.5 95q-137 0 -225 -93.5t-99 -248.5h604zM526 1233q-103 0 -177.5 62t-74.5 124q0 22 17.5 36.5t40.5 14.5q21 0 36 -20q41 -55 59 -72.5t41 -27t58 -9.5q80 0 127 65q30 40 43 52t29 12q22 0 38.5 -14.5t16.5 -36.5q0 -63 -74 -124.5t-180 -61.5z" />
    <glyph glyph-name="Edotaccent" unicode="&#x116;" horiz-adv-x="1032" 
d="M313 788h506q64 0 64 -65q0 -61 -64 -61h-506v-504q0 -31 27 -31h545q65 0 65 -61q0 -66 -65 -66h-563q-65 0 -101.5 35t-36.5 100v1102q0 69 35.5 112.5t114.5 43.5h551q65 0 65 -64q0 -63 -65 -63h-537q-15 0 -25 -11t-10 -28v-439zM594 1520q-41 0 -71 29.5t-30 70.5
q0 42 29.5 71.5t71.5 29.5q41 0 70.5 -30t29.5 -71q0 -42 -29 -71t-71 -29z" />
    <glyph glyph-name="edotaccent" unicode="&#x117;" horiz-adv-x="1042" 
d="M221 483q0 -167 96 -275t244 -108q63 0 128 20.5t112 51.5q32 21 47 21q24 0 40.5 -21t16.5 -45q0 -45 -107.5 -96t-238.5 -51q-215 0 -341 145t-126 387q0 240 124 396.5t337 156.5q188 0 295.5 -126.5t107.5 -338.5q0 -57 -25.5 -87t-70.5 -30h-639zM829 602
q0 152 -74.5 247t-205.5 95q-137 0 -225 -93.5t-99 -248.5h604zM527 1233q-41 0 -71 29.5t-30 70.5q0 42 29.5 71.5t71.5 29.5q41 0 70.5 -30t29.5 -71q0 -42 -29 -71t-71 -29z" />
    <glyph glyph-name="Eogonek" unicode="&#x118;" horiz-adv-x="1032" 
d="M748 0h-426q-65 0 -101.5 35t-36.5 100v1102q0 69 35.5 112.5t114.5 43.5h551q65 0 65 -64q0 -63 -65 -63h-537q-15 0 -25 -11t-10 -28v-439h506q64 0 64 -65q0 -61 -64 -61h-506v-504q0 -31 27 -31h545q65 0 65 -61q0 -66 -65 -66h-39q-53 -63 -77 -118t-24 -87
q0 -37 16.5 -55.5t49.5 -18.5q47 0 95 28q9 5 20 5q39 0 39 -45q0 -32 -54.5 -57t-115.5 -25q-82 0 -123 36.5t-41 109.5q0 51 29 107.5t88 119.5z" />
    <glyph glyph-name="eogonek" unicode="&#x119;" horiz-adv-x="1042" 
d="M584 -20h-25q-215 0 -341 145t-126 387q0 240 124 396.5t337 156.5q188 0 295.5 -126.5t107.5 -338.5q0 -57 -25.5 -87t-70.5 -30h-639q0 -167 96 -275t244 -108q63 0 128 20.5t112 51.5q32 21 47 21q24 0 40.5 -21t16.5 -45q0 -17 -18.5 -38.5t-71.5 -49t-119 -43.5
q-49 -63 -72.5 -116.5t-23.5 -84.5q0 -37 16.5 -55.5t49.5 -18.5q49 0 94 28q9 5 20 5q39 0 39 -45q0 -33 -54 -57.5t-116 -24.5q-82 0 -123 36.5t-41 109.5q0 46 24.5 97.5t74.5 109.5zM829 602v8q0 144 -74.5 239t-205.5 95q-137 0 -225 -93.5t-99 -248.5h604z" />
    <glyph glyph-name="Ecaron" unicode="&#x11a;" horiz-adv-x="1032" 
d="M313 788h506q64 0 64 -65q0 -61 -64 -61h-506v-504q0 -31 27 -31h545q65 0 65 -61q0 -66 -65 -66h-563q-65 0 -101.5 35t-36.5 100v1102q0 69 35.5 112.5t114.5 43.5h551q65 0 65 -64q0 -63 -65 -63h-537q-15 0 -25 -11t-10 -28v-439zM573 1633l188 122q32 21 52 21
q18 0 33.5 -16.5t15.5 -36.5q0 -19 -9.5 -32t-35.5 -30l-178 -117q-37 -24 -66 -24q-28 0 -65 24l-173 111q-51 33 -51 64q0 23 15 40t36 17q17 0 39 -14z" />
    <glyph glyph-name="ecaron" unicode="&#x11b;" horiz-adv-x="1042" 
d="M221 483q0 -167 96 -275t244 -108q63 0 128 20.5t112 51.5q32 21 47 21q24 0 40.5 -21t16.5 -45q0 -45 -107.5 -96t-238.5 -51q-215 0 -341 145t-126 387q0 240 124 396.5t337 156.5q188 0 295.5 -126.5t107.5 -338.5q0 -57 -25.5 -87t-70.5 -30h-639zM829 602
q0 152 -74.5 247t-205.5 95q-137 0 -225 -93.5t-99 -248.5h604zM526 1346l188 122q32 21 52 21q18 0 33.5 -16.5t15.5 -36.5q0 -19 -9.5 -32t-35.5 -30l-178 -117q-37 -24 -66 -24q-28 0 -65 24l-173 111q-51 33 -51 64q0 23 15 40t36 17q17 0 39 -14z" />
    <glyph glyph-name="Gbreve" unicode="&#x11e;" horiz-adv-x="1319" 
d="M1165 217q0 -76 -39.5 -116t-154.5 -80.5t-260 -40.5q-286 0 -452.5 192.5t-166.5 515.5q0 221 82.5 385t233.5 252t321 88q95 0 177 -22t146.5 -60.5t75.5 -54.5t11 -35q0 -24 -19.5 -45.5t-44.5 -21.5q-14 0 -27 8t-28 18q-135 92 -295 92q-218 0 -361 -162.5
t-143 -441.5q0 -267 133 -427.5t363 -160.5q107 0 197 30t106 45.5t16 60.5v366h-309q-63 0 -63 64q0 63 63 63h377q61 0 61 -63v-449zM704 1522q-103 0 -177.5 62t-74.5 124q0 22 17.5 36.5t40.5 14.5q21 0 36 -20q41 -55 59 -72.5t41 -27t58 -9.5q80 0 127 65q30 40 43 52
t29 12q22 0 38.5 -14.5t16.5 -36.5q0 -63 -74 -124.5t-180 -61.5z" />
    <glyph glyph-name="gbreve" unicode="&#x11f;" 
d="M965 94q0 -262 -119 -394t-348 -132q-110 0 -223 48t-113 95q0 31 17 50.5t36 19.5t57 -23q68 -38 118.5 -53.5t111.5 -15.5q168 0 252 93.5t84 280.5v99q-44 -84 -125.5 -133t-186.5 -49q-198 0 -316 145.5t-118 398.5q0 252 121.5 396.5t327.5 144.5q95 0 172.5 -41.5
t124.5 -118.5v84q0 62 65 62q62 0 62 -62v-895zM838 623q0 142 -84 231.5t-213 89.5q-146 0 -234 -110.5t-88 -309.5q0 -198 85 -311t237 -113q133 0 215 91.5t82 232.5v199zM520 1233q-103 0 -177.5 62t-74.5 124q0 22 17.5 36.5t40.5 14.5q21 0 36 -20q41 -55 59 -72.5
t41 -27t58 -9.5q80 0 127 65q30 40 43 52t29 12q22 0 38.5 -14.5t16.5 -36.5q0 -63 -74 -124.5t-180 -61.5z" />
    <glyph glyph-name="Gcommaaccent" unicode="&#x122;" horiz-adv-x="1319" 
d="M1165 217q0 -76 -39.5 -116t-154.5 -80.5t-260 -40.5q-286 0 -452.5 192.5t-166.5 515.5q0 221 82.5 385t233.5 252t321 88q95 0 177 -22t146.5 -60.5t75.5 -54.5t11 -35q0 -24 -19.5 -45.5t-44.5 -21.5q-14 0 -27 8t-28 18q-135 92 -295 92q-218 0 -361 -162.5
t-143 -441.5q0 -267 133 -427.5t363 -160.5q107 0 197 30t106 45.5t16 60.5v366h-309q-63 0 -63 64q0 63 63 63h377q61 0 61 -63v-449zM686 -393q-28 0 -42.5 15t-14.5 34q0 14 18 40t18 56q0 17 -6 35q-6 17 -6 33q0 61 68 61q31 0 47 -23t16 -83q0 -62 -28 -115t-70 -53z
" />
    <glyph glyph-name="gcommaaccent" unicode="&#x123;" 
d="M965 94q0 -262 -119 -394t-348 -132q-110 0 -223 48t-113 95q0 31 17 50.5t36 19.5t57 -23q68 -38 118.5 -53.5t111.5 -15.5q168 0 252 93.5t84 280.5v99q-44 -84 -125.5 -133t-186.5 -49q-198 0 -316 145.5t-118 398.5q0 252 121.5 396.5t327.5 144.5q95 0 172.5 -41.5
t124.5 -118.5v84q0 62 65 62q62 0 62 -62v-895zM838 623q0 142 -84 231.5t-213 89.5q-146 0 -234 -110.5t-88 -309.5q0 -198 85 -311t237 -113q133 0 215 91.5t82 232.5v199zM567 1509q28 0 43 -15t15 -34q0 -16 -20 -41q-17 -29 -17 -55q0 -17 6 -34q6 -18 6 -34
q0 -31 -17 -46t-51 -15q-32 0 -47.5 26.5t-15.5 79.5q0 62 28 115t70 53z" />
    <glyph glyph-name="Imacron" unicode="&#x12a;" horiz-adv-x="498" 
d="M313 59q0 -65 -65 -65q-64 0 -64 65v1276q0 64 64 64q65 0 65 -64v-1276zM460 1534h-428q-44 0 -58 15.5t-14 41.5t14 42t58 16h428q44 0 59 -15t15 -43q0 -57 -74 -57z" />
    <glyph glyph-name="imacron" unicode="&#x12b;" horiz-adv-x="430" 
d="M279 57q0 -63 -66 -63q-61 0 -61 63v932q0 62 63 62q64 0 64 -62v-932zM429 1235h-428q-44 0 -58 15.5t-14 41.5t14 42t58 16h428q44 0 59 -15t15 -43q0 -57 -74 -57z" />
    <glyph glyph-name="Iogonek" unicode="&#x12e;" horiz-adv-x="498" 
d="M199 12q-15 15 -15 47v1276q0 64 64 64q65 0 65 -64v-1276q0 -41 -24 -57q-41 -50 -61.5 -102t-20.5 -105q0 -37 16 -55.5t49 -18.5q47 0 95 28q9 5 20 5q39 0 39 -45q0 -33 -54 -57.5t-116 -24.5q-82 0 -123 36.5t-41 109.5q0 66 26.5 126t80.5 113z" />
    <glyph glyph-name="iogonek" unicode="&#x12f;" horiz-adv-x="430" 
d="M215 1303q-37 0 -61 26t-24 60q0 35 25 60.5t60 25.5t60.5 -24.5t25.5 -61.5q0 -38 -24.5 -62t-61.5 -24zM83.5 -104q26.5 59 80.5 114q-12 15 -12 47v932q0 62 63 62q64 0 64 -62v-932q0 -37 -23 -53q-42 -51 -63 -103.5t-21 -105.5q0 -37 16.5 -55.5t49.5 -18.5
q49 0 94 28q9 5 20 5q39 0 39 -45q0 -33 -54 -57.5t-116 -24.5q-82 0 -123 36.5t-41 109.5q0 64 26.5 123z" />
    <glyph glyph-name="Idotaccent" unicode="&#x130;" horiz-adv-x="498" 
d="M313 59q0 -65 -65 -65q-64 0 -64 65v1276q0 64 64 64q65 0 65 -64v-1276zM249 1522q-41 0 -71 29.5t-30 70.5q0 42 29.5 71.5t71.5 29.5q41 0 70.5 -30t29.5 -71q0 -42 -29 -71t-71 -29z" />
    <glyph glyph-name="dotlessi" unicode="&#x131;" horiz-adv-x="430" 
d="M279 57q0 -63 -66 -63q-61 0 -61 63v932q0 62 63 62q64 0 64 -62v-932z" />
    <glyph glyph-name="Kcommaaccent" unicode="&#x136;" horiz-adv-x="1157" 
d="M473 686l-160 -123v-506q0 -63 -65 -63q-64 0 -64 63v1278q0 64 64 64q65 0 65 -64v-620q182 133 337 297t282 358q20 31 49 31q26 0 48 -18t22 -42q0 -12 -7 -28t-85.5 -122t-180.5 -216.5t-209 -202.5q135 -137 248 -274.5t201.5 -269.5t94 -147t5.5 -28q0 -23 -22 -42
t-47 -19q-29 0 -54 35q-128 198 -258.5 362.5t-263.5 296.5zM567 -393q-28 0 -42.5 15t-14.5 34q0 14 18 40t18 56q0 17 -6 35q-6 17 -6 33q0 61 68 61q31 0 47 -23t16 -83q0 -62 -28 -115t-70 -53z" />
    <glyph glyph-name="kcommaaccent" unicode="&#x137;" horiz-adv-x="950" 
d="M279 575q140 100 253 211t199 234q24 33 51 33q28 0 47 -17t19 -37q0 -19 -13 -42.5t-83 -110.5t-242 -240q68 -62 135 -139t133 -170q131 -185 131 -246q0 -21 -18.5 -40t-46.5 -19q-23 0 -35 11.5t-23 31.5q-81 154 -175 278t-201 217q-98 -73 -131 -94v-377
q0 -65 -64 -65q-63 0 -63 65v1414q0 63 63 63q64 0 64 -63v-898zM488 -393q-28 0 -42.5 15t-14.5 34q0 14 18 40t18 56q0 17 -6 35q-6 17 -6 33q0 61 68 61q31 0 47 -23t16 -83q0 -62 -28 -115t-70 -53z" />
    <glyph glyph-name="Lacute" unicode="&#x139;" horiz-adv-x="954" 
d="M860 0h-536q-65 0 -102.5 35t-37.5 100v1200q0 64 66 64q63 0 63 -64v-1175q0 -33 29 -33h518q66 0 66 -61q0 -66 -66 -66zM506 1648l-201 -157q-37 -29 -55 -29q-25 0 -44 18t-19 45q0 26 41 58l194 153q42 33 62 33q23 0 42 -17.5t19 -43.5t-39 -60z" />
    <glyph glyph-name="lacute" unicode="&#x13a;" horiz-adv-x="430" 
d="M279 55q0 -61 -64 -61q-63 0 -63 61v1420q0 61 63 61q64 0 64 -61v-1420zM401 1763l-201 -157q-37 -29 -55 -29q-25 0 -44 18t-19 45q0 26 41 58l194 153q42 33 62 33q23 0 42 -17.5t19 -43.5t-39 -60z" />
    <glyph glyph-name="Lcommaaccent" unicode="&#x13b;" horiz-adv-x="954" 
d="M860 0h-536q-65 0 -102.5 35t-37.5 100v1200q0 64 66 64q63 0 63 -64v-1175q0 -33 29 -33h518q66 0 66 -61q0 -66 -66 -66zM537 -393q-28 0 -42.5 15t-14.5 34q0 14 18 40t18 56q0 17 -6 35q-6 17 -6 33q0 61 68 61q31 0 47 -23t16 -83q0 -62 -28 -115t-70 -53z" />
    <glyph glyph-name="lcommaaccent" unicode="&#x13c;" horiz-adv-x="430" 
d="M279 55q0 -61 -64 -61q-63 0 -63 61v1420q0 61 63 61q64 0 64 -61v-1420zM190 -393q-28 0 -42.5 15t-14.5 34q0 14 18 40t18 56q0 17 -6 35q-6 17 -6 33q0 61 68 61q31 0 47 -23t16 -83q0 -62 -28 -115t-70 -53z" />
    <glyph glyph-name="Lcaron" unicode="&#x13d;" horiz-adv-x="954" 
d="M860 0h-536q-65 0 -102.5 35t-37.5 100v1200q0 64 66 64q63 0 63 -64v-1175q0 -33 29 -33h518q66 0 66 -61q0 -66 -66 -66zM674 1116q-28 0 -42.5 15t-14.5 34q0 14 18 40t18 56q0 17 -6 35q-6 17 -6 33q0 61 68 61q31 0 47 -23t16 -83q0 -62 -28 -115t-70 -53z" />
    <glyph glyph-name="lcaron" unicode="&#x13e;" horiz-adv-x="504" 
d="M279 55q0 -61 -64 -61q-63 0 -63 61v1420q0 61 63 61q64 0 64 -61v-1420zM450 1262q-28 0 -42.5 15t-14.5 34q0 14 18 40t18 56q0 17 -6 35q-6 17 -6 33q0 61 68 61q31 0 47 -23t16 -83q0 -62 -28 -115t-70 -53z" />
    <glyph glyph-name="Lslash" unicode="&#x141;" horiz-adv-x="975" 
d="M205 567l-76 -43q-21 -12 -41 -12q-25 0 -40 22.5t-15 43.5q0 29 37 51l135 78v628q0 64 65 64q64 0 64 -64v-555l229 133q22 13 41 13q26 0 40.5 -23.5t14.5 -42.5q0 -30 -36 -51l-289 -168v-481q0 -33 28 -33h519q65 0 65 -64q0 -63 -65 -63h-537q-65 0 -102 35
t-37 100v432z" />
    <glyph glyph-name="lslash" unicode="&#x142;" horiz-adv-x="508" 
d="M317 739v-684q0 -61 -63 -61q-64 0 -64 61v611l-96 -56q-21 -12 -41 -12q-25 0 -40 22.5t-15 43.5q0 29 37 51l155 90v670q0 61 64 61q63 0 63 -61v-596l97 55q21 12 41 12q25 0 40 -23t15 -42q0 -30 -37 -52z" />
    <glyph glyph-name="Nacute" unicode="&#x143;" horiz-adv-x="1360" 
d="M1176 96q0 -45 -29.5 -73.5t-77.5 -28.5q-62 0 -94 57l-670 1192v-1186q0 -63 -59 -63q-62 0 -62 63v1231q0 54 30 82.5t77 28.5q66 0 96 -56l668 -1189v1181q0 64 59 64q62 0 62 -64v-1239zM921 1716l-201 -157q-37 -29 -55 -29q-25 0 -44 18t-19 45q0 26 41 58l194 153
q42 33 62 33q23 0 42 -17.5t19 -43.5t-39 -60z" />
    <glyph glyph-name="nacute" unicode="&#x144;" horiz-adv-x="1114" 
d="M967 57q0 -63 -62 -63q-65 0 -65 63v602q0 139 -63 212t-185 73q-138 0 -225.5 -98t-87.5 -266v-523q0 -63 -64 -63q-63 0 -63 63v930q0 64 63 64q64 0 64 -64v-108q48 86 135.5 136t193.5 50q175 0 267 -99.5t92 -271.5v-637zM770 1419l-201 -157q-37 -29 -55 -29
q-25 0 -44 18t-19 45q0 26 41 58l194 153q42 33 62 33q23 0 42 -17.5t19 -43.5t-39 -60z" />
    <glyph glyph-name="Ncommaaccent" unicode="&#x145;" horiz-adv-x="1360" 
d="M1176 96q0 -45 -29.5 -73.5t-77.5 -28.5q-62 0 -94 57l-670 1192v-1186q0 -63 -59 -63q-62 0 -62 63v1231q0 54 30 82.5t77 28.5q66 0 96 -56l668 -1189v1181q0 64 59 64q62 0 62 -64v-1239zM647 -393q-28 0 -42.5 15t-14.5 34q0 14 18 40t18 56q0 17 -6 35q-6 17 -6 33
q0 61 68 61q31 0 47 -23t16 -83q0 -62 -28 -115t-70 -53z" />
    <glyph glyph-name="ncommaaccent" unicode="&#x146;" horiz-adv-x="1114" 
d="M967 57q0 -63 -62 -63q-65 0 -65 63v602q0 139 -63 212t-185 73q-138 0 -225.5 -98t-87.5 -266v-523q0 -63 -64 -63q-63 0 -63 63v930q0 64 63 64q64 0 64 -64v-108q48 86 135.5 136t193.5 50q175 0 267 -99.5t92 -271.5v-637zM537 -393q-28 0 -42.5 15t-14.5 34
q0 14 18 40t18 56q0 17 -6 35q-6 17 -6 33q0 61 68 61q31 0 47 -23t16 -83q0 -62 -28 -115t-70 -53z" />
    <glyph glyph-name="Ncaron" unicode="&#x147;" horiz-adv-x="1360" 
d="M1176 96q0 -45 -29.5 -73.5t-77.5 -28.5q-62 0 -94 57l-670 1192v-1186q0 -63 -59 -63q-62 0 -62 63v1231q0 54 30 82.5t77 28.5q66 0 96 -56l668 -1189v1181q0 64 59 64q62 0 62 -64v-1239zM680 1641l188 122q32 21 52 21q18 0 33.5 -16.5t15.5 -36.5q0 -19 -9.5 -32
t-35.5 -30l-178 -117q-37 -24 -66 -24q-28 0 -65 24l-173 111q-51 33 -51 64q0 23 15 40t36 17q17 0 39 -14z" />
    <glyph glyph-name="ncaron" unicode="&#x148;" horiz-adv-x="1114" 
d="M967 57q0 -63 -62 -63q-65 0 -65 63v602q0 139 -63 212t-185 73q-138 0 -225.5 -98t-87.5 -266v-523q0 -63 -64 -63q-63 0 -63 63v930q0 64 63 64q64 0 64 -64v-108q48 86 135.5 136t193.5 50q175 0 267 -99.5t92 -271.5v-637zM557 1346l188 122q32 21 52 21
q18 0 33.5 -16.5t15.5 -36.5q0 -19 -9.5 -32t-35.5 -30l-178 -117q-37 -24 -66 -24q-28 0 -65 24l-173 111q-51 33 -51 64q0 23 15 40t36 17q17 0 39 -14z" />
    <glyph glyph-name="Omacron" unicode="&#x14c;" horiz-adv-x="1356" 
d="M680 -20q-270 0 -429 201.5t-159 514.5q0 320 159.5 518.5t428.5 198.5t426.5 -201t157.5 -516q0 -311 -157.5 -513.5t-426.5 -202.5zM678 1290q-212 0 -334.5 -167t-122.5 -427q0 -259 124.5 -426.5t332.5 -167.5q212 0 334.5 168t122.5 426t-122.5 426t-334.5 168z
M891 1528h-428q-44 0 -58 15.5t-14 41.5t14 42t58 16h428q44 0 59 -15t15 -43q0 -57 -74 -57z" />
    <glyph glyph-name="omacron" unicode="&#x14d;" horiz-adv-x="1100" 
d="M549 -20q-201 0 -329 146.5t-128 395.5q0 259 128 401t329 142q203 0 331 -144t128 -399q0 -248 -128.5 -395t-330.5 -147zM549 944q-140 0 -235 -105t-95 -317q0 -210 99.5 -316t230.5 -106q132 0 232 106t100 316q0 208 -93.5 315t-238.5 107zM764 1235h-428
q-44 0 -58 15.5t-14 41.5t14 42t58 16h428q44 0 59 -15t15 -43q0 -57 -74 -57z" />
    <glyph glyph-name="Obreve" unicode="&#x14e;" horiz-adv-x="1356" 
d="M680 -20q-270 0 -429 201.5t-159 514.5q0 320 159.5 518.5t428.5 198.5t426.5 -201t157.5 -516q0 -311 -157.5 -513.5t-426.5 -202.5zM678 1290q-212 0 -334.5 -167t-122.5 -427q0 -259 124.5 -426.5t332.5 -167.5q212 0 334.5 168t122.5 426t-122.5 426t-334.5 168z
M678 1530q-103 0 -177.5 62t-74.5 124q0 22 17.5 36.5t40.5 14.5q21 0 36 -20q41 -55 59 -72.5t41 -27t58 -9.5q80 0 127 65q30 40 43 52t29 12q22 0 38.5 -14.5t16.5 -36.5q0 -63 -74 -124.5t-180 -61.5z" />
    <glyph glyph-name="obreve" unicode="&#x14f;" horiz-adv-x="1100" 
d="M549 -20q-201 0 -329 146.5t-128 395.5q0 259 128 401t329 142q203 0 331 -144t128 -399q0 -248 -128.5 -395t-330.5 -147zM549 944q-140 0 -235 -105t-95 -317q0 -210 99.5 -316t230.5 -106q132 0 232 106t100 316q0 208 -93.5 315t-238.5 107zM549 1233
q-103 0 -177.5 62t-74.5 124q0 22 17.5 36.5t40.5 14.5q21 0 36 -20q41 -55 59 -72.5t41 -27t58 -9.5q80 0 127 65q30 40 43 52t29 12q22 0 38.5 -14.5t16.5 -36.5q0 -63 -74 -124.5t-180 -61.5z" />
    <glyph glyph-name="Ohungarumlaut" unicode="&#x150;" horiz-adv-x="1356" 
d="M680 -20q-270 0 -429 201.5t-159 514.5q0 320 159.5 518.5t428.5 198.5t426.5 -201t157.5 -516q0 -311 -157.5 -513.5t-426.5 -202.5zM678 1290q-212 0 -334.5 -167t-122.5 -427q0 -259 124.5 -426.5t332.5 -167.5q212 0 334.5 168t122.5 426t-122.5 426t-334.5 168z
M1038 1720l-147 -157q-27 -29 -56 -29q-21 0 -40 15.5t-19 43.5q0 12 6.5 23.5t34.5 42.5l145 158q26 28 58 28q20 0 38.5 -18.5t18.5 -44.5q0 -19 -39 -62zM729 1720l-148 -157q-27 -29 -55 -29q-22 0 -40.5 15.5t-18.5 43.5q0 12 6.5 23.5t34.5 42.5l145 158q26 28 57 28
q20 0 39 -18.5t19 -44.5q0 -19 -39 -62z" />
    <glyph glyph-name="ohungarumlaut" unicode="&#x151;" horiz-adv-x="1100" 
d="M549 -20q-201 0 -329 146.5t-128 395.5q0 259 128 401t329 142q203 0 331 -144t128 -399q0 -248 -128.5 -395t-330.5 -147zM549 944q-140 0 -235 -105t-95 -317q0 -210 99.5 -316t230.5 -106q132 0 232 106t100 316q0 208 -93.5 315t-238.5 107zM891 1419l-147 -157
q-27 -29 -56 -29q-21 0 -40 15.5t-19 43.5q0 12 6.5 23.5t34.5 42.5l145 158q26 28 58 28q20 0 38.5 -18.5t18.5 -44.5q0 -19 -39 -62zM582 1419l-148 -157q-27 -29 -55 -29q-22 0 -40.5 15.5t-18.5 43.5q0 12 6.5 23.5t34.5 42.5l145 158q26 28 57 28q20 0 39 -18.5
t19 -44.5q0 -19 -39 -62z" />
    <glyph glyph-name="OE" unicode="&#x152;" horiz-adv-x="1851" 
d="M1004 158q-59 -89 -150.5 -133.5t-214.5 -44.5q-260 0 -403.5 193t-143.5 523q0 324 147 520.5t400 196.5q123 0 214.5 -44.5t150.5 -133.5v2q0 69 35.5 112.5t113.5 43.5h551q65 0 65 -64q0 -63 -65 -63h-537q-15 0 -24.5 -11t-9.5 -28v-439h505q64 0 64 -65
q0 -61 -64 -61h-505v-504q0 -31 26 -31h545q65 0 65 -61q0 -66 -65 -66h-563q-76 0 -106.5 38t-30.5 120zM1004 416v542q0 133 -110 233.5t-257 100.5q-203 0 -309.5 -158t-106.5 -438q0 -276 108 -436t308 -160q155 0 261 100t106 216z" />
    <glyph glyph-name="oe" unicode="&#x153;" horiz-adv-x="1792" 
d="M971 483q0 -170 96 -276.5t244 -106.5q133 0 263 87q9 6 23 6q24 0 41 -20.5t17 -45.5q0 -42 -106 -94.5t-240 -52.5q-139 0 -239.5 59t-162.5 178q-49 -105 -147 -171t-228 -66q-191 0 -315.5 145t-124.5 397q0 260 123 401.5t317 141.5q135 0 234 -68.5t147 -173.5
q61 121 158.5 181.5t231.5 60.5q188 0 295.5 -126.5t107.5 -338.5q0 -53 -25 -85t-71 -32h-639zM1579 602v8q0 146 -75 241t-206 95q-134 0 -223 -92.5t-100 -251.5h604zM528 944q-129 0 -219 -103.5t-90 -318.5q0 -214 94 -319t215 -105q124 0 218 106.5t94 317.5
q0 208 -88 315t-224 107z" />
    <glyph glyph-name="Racute" unicode="&#x154;" horiz-adv-x="1139" 
d="M313 627v-570q0 -63 -63 -63q-66 0 -66 63v1180q0 69 35.5 112.5t114.5 43.5h239q221 0 332 -93.5t111 -279.5q0 -141 -92.5 -240t-239.5 -118q73 -28 139.5 -106t127.5 -207q122 -257 122 -294q0 -28 -21.5 -45.5t-56.5 -17.5t-47 31q-119 314 -229 459t-262 145h-144z
M313 754h248q154 0 240 71t86 197t-75.5 185t-240.5 59h-223q-15 0 -25 -11t-10 -28v-473zM782 1714l-201 -157q-37 -29 -55 -29q-25 0 -44 18t-19 45q0 26 41 58l194 153q42 33 62 33q23 0 42 -17.5t19 -43.5t-39 -60z" />
    <glyph glyph-name="racute" unicode="&#x155;" horiz-adv-x="698" 
d="M279 918q40 73 102.5 110t148.5 37q75 0 111.5 -20.5t36.5 -51.5q0 -26 -11.5 -45.5t-33.5 -19.5q-13 0 -31 6q-34 10 -74 10q-113 0 -181 -80t-68 -211v-596q0 -63 -64 -63q-63 0 -63 63v932q0 62 63 62q64 0 64 -62v-71zM588 1419l-201 -157q-37 -29 -55 -29
q-25 0 -44 18t-19 45q0 26 41 58l194 153q42 33 62 33q23 0 42 -17.5t19 -43.5t-39 -60z" />
    <glyph glyph-name="Rcommaaccent" unicode="&#x156;" horiz-adv-x="1139" 
d="M313 627v-570q0 -63 -63 -63q-66 0 -66 63v1180q0 69 35.5 112.5t114.5 43.5h239q221 0 332 -93.5t111 -279.5q0 -141 -92.5 -240t-239.5 -118q73 -28 139.5 -106t127.5 -207q122 -257 122 -294q0 -28 -21.5 -45.5t-56.5 -17.5t-47 31q-119 314 -229 459t-262 145h-144z
M313 754h248q154 0 240 71t86 197t-75.5 185t-240.5 59h-223q-15 0 -25 -11t-10 -28v-473zM574 -393q-28 0 -42.5 15t-14.5 34q0 14 18 40t18 56q0 17 -6 35q-6 17 -6 33q0 61 68 61q31 0 47 -23t16 -83q0 -62 -28 -115t-70 -53z" />
    <glyph glyph-name="rcommaaccent" unicode="&#x157;" horiz-adv-x="698" 
d="M279 918q40 73 102.5 110t148.5 37q75 0 111.5 -20.5t36.5 -51.5q0 -26 -11.5 -45.5t-33.5 -19.5q-13 0 -31 6q-34 10 -74 10q-113 0 -181 -80t-68 -211v-596q0 -63 -64 -63q-63 0 -63 63v932q0 62 63 62q64 0 64 -62v-71zM196 -393q-28 0 -42.5 15t-14.5 34q0 14 18 40
t18 56q0 17 -6 35q-6 17 -6 33q0 61 68 61q31 0 47 -23t16 -83q0 -62 -28 -115t-70 -53z" />
    <glyph glyph-name="Rcaron" unicode="&#x158;" horiz-adv-x="1139" 
d="M313 627v-570q0 -63 -63 -63q-66 0 -66 63v1180q0 69 35.5 112.5t114.5 43.5h239q221 0 332 -93.5t111 -279.5q0 -141 -92.5 -240t-239.5 -118q73 -28 139.5 -106t127.5 -207q122 -257 122 -294q0 -28 -21.5 -45.5t-56.5 -17.5t-47 31q-119 314 -229 459t-262 145h-144z
M313 754h248q154 0 240 71t86 197t-75.5 185t-240.5 59h-223q-15 0 -25 -11t-10 -28v-473zM532 1637l188 122q32 21 52 21q18 0 33.5 -16.5t15.5 -36.5q0 -19 -9.5 -32t-35.5 -30l-178 -117q-37 -24 -66 -24q-28 0 -65 24l-173 111q-51 33 -51 64q0 23 15 40t36 17
q17 0 39 -14z" />
    <glyph glyph-name="rcaron" unicode="&#x159;" horiz-adv-x="698" 
d="M279 918q40 73 102.5 110t148.5 37q75 0 111.5 -20.5t36.5 -51.5q0 -26 -11.5 -45.5t-33.5 -19.5q-13 0 -31 6q-34 10 -74 10q-113 0 -181 -80t-68 -211v-596q0 -63 -64 -63q-63 0 -63 63v932q0 62 63 62q64 0 64 -62v-71zM411 1346l188 122q32 21 52 21q18 0 33.5 -16.5
t15.5 -36.5q0 -19 -9.5 -32t-35.5 -30l-178 -117q-37 -24 -66 -24q-28 0 -65 24l-173 111q-51 33 -51 64q0 23 15 40t36 17q17 0 39 -14z" />
    <glyph glyph-name="Sacute" unicode="&#x15a;" horiz-adv-x="1042" 
d="M508 -20q-173 0 -298.5 70.5t-125.5 125.5q0 25 19 45.5t42 20.5q24 0 52 -23q142 -117 311 -117q134 0 214.5 72.5t80.5 198.5q0 76 -35.5 127t-91 80.5t-189.5 70.5q-154 45 -224 89.5t-110 116.5t-40 177q0 169 119.5 274t295.5 105q152 0 268.5 -68t116.5 -122
q0 -25 -18.5 -44.5t-44.5 -19.5q-16 0 -26.5 7.5t-30.5 23.5q-80 60 -139.5 80t-125.5 20q-132 0 -209 -70t-77 -186q0 -73 32.5 -120.5t84.5 -75.5t171 -62q242 -69 322 -165t80 -238q0 -176 -119.5 -284.5t-304.5 -108.5zM702 1710l-201 -157q-37 -29 -55 -29
q-25 0 -44 18t-19 45q0 26 41 58l194 153q42 33 62 33q23 0 42 -17.5t19 -43.5t-39 -60z" />
    <glyph glyph-name="sacute" unicode="&#x15b;" horiz-adv-x="895" 
d="M442 -20q-81 0 -147.5 17t-130.5 53.5t-77 54.5t-13 40q0 25 17.5 44.5t39.5 19.5q25 0 49 -19q51 -39 122.5 -64.5t139.5 -25.5q115 0 179.5 47t64.5 127q0 73 -51 112t-137 58q-140 29 -202.5 48t-107.5 52.5t-71.5 85t-26.5 130.5q0 135 104.5 220t266.5 85
q119 0 222 -47.5t103 -95.5q0 -24 -18.5 -47t-40.5 -23q-21 0 -49 20q-105 72 -219 72q-117 0 -179.5 -49.5t-62.5 -126.5q0 -59 31 -96.5t82 -57t185 -48.5q178 -38 238 -106t60 -177q0 -130 -99.5 -216.5t-271.5 -86.5zM651 1419l-201 -157q-37 -29 -55 -29q-25 0 -44 18
t-19 45q0 26 41 58l194 153q42 33 62 33q23 0 42 -17.5t19 -43.5t-39 -60z" />
    <glyph glyph-name="Scedilla" unicode="&#x15e;" horiz-adv-x="1042" 
d="M467 -19q-147 7 -265 74t-118 121q0 25 19.5 45.5t41.5 20.5q24 0 52 -23q142 -117 311 -117q135 0 215 73t80 198q0 72 -33.5 124t-96.5 85t-186 69q-134 39 -211 82.5t-120 117t-43 183.5q0 168 118.5 273.5t296.5 105.5q152 0 268.5 -67.5t116.5 -122.5
q0 -25 -18.5 -44.5t-44.5 -19.5q-19 0 -40 17q-138 114 -282 114q-132 0 -209 -70.5t-77 -185.5q0 -69 31.5 -118t84 -76.5t172.5 -63.5q236 -68 319 -162.5t83 -240.5q0 -160 -100.5 -266.5t-271.5 -123.5l-44 -85q28 4 47 4q61 0 95 -34t34 -93q0 -71 -50 -114.5
t-142 -43.5q-64 0 -104 20t-40 48q0 18 11 30.5t26 12.5q14 0 22 -4q47 -23 93 -23q41 0 61.5 16.5t20.5 49.5q0 31 -20 46t-60 15q-20 0 -39 -2q-18 -2 -33 -2q-31 0 -31 29q0 16 13 38z" />
    <glyph glyph-name="scedilla" unicode="&#x15f;" horiz-adv-x="895" 
d="M414 -19q-72 3 -139 23t-121.5 52t-67 49t-12.5 40q0 25 17.5 44.5t39.5 19.5q27 0 49 -19q55 -40 125 -65t137 -25q116 0 180 47t64 127q0 51 -28.5 89t-84.5 58t-185 47q-170 35 -234 105.5t-64 186.5q0 133 103.5 219t267.5 86q123 0 224 -48t101 -95q0 -24 -18 -47
t-41 -23q-21 0 -49 20q-105 72 -219 72q-115 0 -178.5 -49t-63.5 -127q0 -53 28 -92.5t84.5 -61t185.5 -48.5q171 -36 234.5 -103t63.5 -180q0 -116 -81.5 -199t-224.5 -100l-44 -86q28 4 47 4q61 0 95 -34t34 -93q0 -71 -50 -114.5t-142 -43.5q-64 0 -104 20t-40 48
q0 18 11 30.5t26 12.5q14 0 22 -4q47 -23 93 -23q41 0 61.5 16.5t20.5 49.5q0 31 -20 46t-60 15q-20 0 -39 -2q-18 -2 -33 -2q-31 0 -31 29q0 16 13 38z" />
    <glyph glyph-name="Scaron" unicode="&#x160;" horiz-adv-x="1042" 
d="M508 -20q-173 0 -298.5 70.5t-125.5 125.5q0 25 19 45.5t42 20.5q24 0 52 -23q142 -117 311 -117q134 0 214.5 72.5t80.5 198.5q0 76 -35.5 127t-91 80.5t-189.5 70.5q-154 45 -224 89.5t-110 116.5t-40 177q0 169 119.5 274t295.5 105q152 0 268.5 -68t116.5 -122
q0 -25 -18.5 -44.5t-44.5 -19.5q-16 0 -26.5 7.5t-30.5 23.5q-80 60 -139.5 80t-125.5 20q-132 0 -209 -70t-77 -186q0 -73 32.5 -120.5t84.5 -75.5t171 -62q242 -69 322 -165t80 -238q0 -176 -119.5 -284.5t-304.5 -108.5zM539 1653l188 122q32 21 52 21q18 0 33.5 -16.5
t15.5 -36.5q0 -19 -9.5 -32t-35.5 -30l-178 -117q-37 -24 -66 -24q-28 0 -65 24l-173 111q-51 33 -51 64q0 23 15 40t36 17q17 0 39 -14z" />
    <glyph glyph-name="scaron" unicode="&#x161;" horiz-adv-x="895" 
d="M442 -20q-81 0 -147.5 17t-130.5 53.5t-77 54.5t-13 40q0 25 17.5 44.5t39.5 19.5q25 0 49 -19q51 -39 122.5 -64.5t139.5 -25.5q115 0 179.5 47t64.5 127q0 73 -51 112t-137 58q-140 29 -202.5 48t-107.5 52.5t-71.5 85t-26.5 130.5q0 135 104.5 220t266.5 85
q119 0 222 -47.5t103 -95.5q0 -24 -18.5 -47t-40.5 -23q-21 0 -49 20q-105 72 -219 72q-117 0 -179.5 -49.5t-62.5 -126.5q0 -59 31 -96.5t82 -57t185 -48.5q178 -38 238 -106t60 -177q0 -130 -99.5 -216.5t-271.5 -86.5zM452 1346l188 122q32 21 52 21q18 0 33.5 -16.5
t15.5 -36.5q0 -19 -9.5 -32t-35.5 -30l-178 -117q-37 -24 -66 -24q-28 0 -65 24l-173 111q-51 33 -51 64q0 23 15 40t36 17q17 0 39 -14z" />
    <glyph glyph-name="Tcommaaccent" unicode="&#x162;" horiz-adv-x="973" 
d="M551 1266v-1207q0 -65 -64 -65q-65 0 -65 65v1207h-340q-66 0 -66 63q0 64 66 64h809q65 0 65 -64q0 -63 -65 -63h-340zM465 -393q-28 0 -42.5 15t-14.5 34q0 14 18 40t18 56q0 17 -6 35q-6 17 -6 33q0 61 68 61q31 0 47 -23t16 -83q0 -62 -28 -115t-70 -53z" />
    <glyph glyph-name="tcommaaccent" unicode="&#x163;" horiz-adv-x="649" 
d="M336 928v-652q0 -88 30 -132t91 -44q24 0 41 4.5t57 23.5q12 5 23 5q20 0 35.5 -18t15.5 -41q0 -36 -53 -65t-123 -29q-130 0 -187 71t-57 215v662h-115q-63 0 -63 57q0 59 63 59h115v240q0 62 63 62q64 0 64 -62v-240h174q63 0 63 -59q0 -57 -63 -57h-174zM345 -393
q-28 0 -42.5 15t-14.5 34q0 14 18 40t18 56q0 17 -6 35q-6 17 -6 33q0 61 68 61q31 0 47 -23t16 -83q0 -62 -28 -115t-70 -53z" />
    <glyph glyph-name="Tcaron" unicode="&#x164;" horiz-adv-x="973" 
d="M551 1266v-1207q0 -65 -64 -65q-65 0 -65 65v1207h-340q-66 0 -66 63q0 64 66 64h809q65 0 65 -64q0 -63 -65 -63h-340zM487 1639l188 122q32 21 52 21q18 0 33.5 -16.5t15.5 -36.5q0 -19 -9.5 -32t-35.5 -30l-178 -117q-37 -24 -66 -24q-28 0 -65 24l-173 111
q-51 33 -51 64q0 23 15 40t36 17q17 0 39 -14z" />
    <glyph glyph-name="tcaron" unicode="&#x165;" horiz-adv-x="649" 
d="M336 928v-652q0 -88 30 -132t91 -44q24 0 41 4.5t57 23.5q12 5 23 5q20 0 35.5 -18t15.5 -41q0 -36 -53 -65t-123 -29q-130 0 -187 71t-57 215v662h-115q-63 0 -63 57q0 59 63 59h115v240q0 62 63 62q64 0 64 -62v-240h174q63 0 63 -59q0 -57 -63 -57h-174zM533 1227
q-28 0 -42.5 15t-14.5 34q0 14 18 40t18 56q0 17 -6 35q-6 17 -6 33q0 61 68 61q31 0 47 -23t16 -83q0 -62 -28 -115t-70 -53z" />
    <glyph glyph-name="Umacron" unicode="&#x16a;" horiz-adv-x="1319" 
d="M1139 438q0 -208 -134 -333t-348 -125q-212 0 -344.5 125t-132.5 333v897q0 64 64 64q65 0 65 -64v-897q0 -155 94.5 -245.5t253.5 -90.5q157 0 255 90.5t98 245.5v897q0 64 63 64q66 0 66 -64v-897zM872 1536h-428q-44 0 -58 15.5t-14 41.5t14 42t58 16h428q44 0 59 -15
t15 -43q0 -57 -74 -57z" />
    <glyph glyph-name="umacron" unicode="&#x16b;" horiz-adv-x="1114" 
d="M963 57q0 -63 -64 -63q-63 0 -63 63v109q-55 -93 -138.5 -139.5t-195.5 -46.5q-170 0 -262.5 104t-92.5 283v620q0 64 62 64q65 0 65 -64v-612q0 -125 64.5 -200t181.5 -75q147 0 231.5 98.5t84.5 260.5v528q0 64 63 64q64 0 64 -64v-930zM770 1235h-428q-44 0 -58 15.5
t-14 41.5t14 42t58 16h428q44 0 59 -15t15 -43q0 -57 -74 -57z" />
    <glyph glyph-name="Uring" unicode="&#x16e;" horiz-adv-x="1319" 
d="M1139 438q0 -208 -134 -333t-348 -125q-212 0 -344.5 125t-132.5 333v897q0 64 64 64q65 0 65 -64v-897q0 -155 94.5 -245.5t253.5 -90.5q157 0 255 90.5t98 245.5v897q0 64 63 64q66 0 66 -64v-897zM660 1471q-75 0 -130 53.5t-55 131.5q0 79 55 132t130 53t130 -53
t55 -132q0 -78 -55.5 -131.5t-129.5 -53.5zM660 1766q-46 0 -78 -30.5t-32 -79.5q0 -48 32 -79t78 -31q45 0 77.5 31t32.5 79t-32.5 79t-77.5 31z" />
    <glyph glyph-name="uring" unicode="&#x16f;" horiz-adv-x="1114" 
d="M963 57q0 -63 -64 -63q-63 0 -63 63v109q-55 -93 -138.5 -139.5t-195.5 -46.5q-170 0 -262.5 104t-92.5 283v620q0 64 62 64q65 0 65 -64v-612q0 -125 64.5 -200t181.5 -75q147 0 231.5 98.5t84.5 260.5v528q0 64 63 64q64 0 64 -64v-930zM557 1238q-75 0 -130 53.5
t-55 131.5q0 79 55 132t130 53t130 -53t55 -132q0 -78 -55.5 -131.5t-129.5 -53.5zM557 1533q-46 0 -78 -30.5t-32 -79.5q0 -48 32 -79t78 -31q45 0 77.5 31t32.5 79t-32.5 79t-77.5 31z" />
    <glyph glyph-name="Uhungarumlaut" unicode="&#x170;" horiz-adv-x="1319" 
d="M1139 438q0 -208 -134 -333t-348 -125q-212 0 -344.5 125t-132.5 333v897q0 64 64 64q65 0 65 -64v-897q0 -155 94.5 -245.5t253.5 -90.5q157 0 255 90.5t98 245.5v897q0 64 63 64q66 0 66 -64v-897zM999 1712l-147 -157q-27 -29 -56 -29q-21 0 -40 15.5t-19 43.5
q0 12 6.5 23.5t34.5 42.5l145 158q26 28 58 28q20 0 38.5 -18.5t18.5 -44.5q0 -19 -39 -62zM690 1712l-148 -157q-27 -29 -55 -29q-22 0 -40.5 15.5t-18.5 43.5q0 12 6.5 23.5t34.5 42.5l145 158q26 28 57 28q20 0 39 -18.5t19 -44.5q0 -19 -39 -62z" />
    <glyph glyph-name="uhungarumlaut" unicode="&#x171;" horiz-adv-x="1114" 
d="M963 57q0 -63 -64 -63q-63 0 -63 63v109q-55 -93 -138.5 -139.5t-195.5 -46.5q-170 0 -262.5 104t-92.5 283v620q0 64 62 64q65 0 65 -64v-612q0 -125 64.5 -200t181.5 -75q147 0 231.5 98.5t84.5 260.5v528q0 64 63 64q64 0 64 -64v-930zM897 1419l-147 -157
q-27 -29 -56 -29q-21 0 -40 15.5t-19 43.5q0 12 6.5 23.5t34.5 42.5l145 158q26 28 58 28q20 0 38.5 -18.5t18.5 -44.5q0 -19 -39 -62zM588 1419l-148 -157q-27 -29 -55 -29q-22 0 -40.5 15.5t-18.5 43.5q0 12 6.5 23.5t34.5 42.5l145 158q26 28 57 28q20 0 39 -18.5
t19 -44.5q0 -19 -39 -62z" />
    <glyph glyph-name="Uogonek" unicode="&#x172;" horiz-adv-x="1319" 
d="M674 -20h-17q-212 0 -344.5 125t-132.5 333v897q0 64 64 64q65 0 65 -64v-897q0 -155 94.5 -245.5t253.5 -90.5q157 0 255 90.5t98 245.5v897q0 64 63 64q66 0 66 -64v-897q0 -171 -94 -289.5t-261 -154.5q-48 -62 -71 -115t-23 -84q0 -37 16.5 -55.5t49.5 -18.5
q49 0 94 28q9 5 20 5q39 0 39 -45q0 -33 -54 -57.5t-116 -24.5q-82 0 -123 36.5t-41 109.5q0 46 24.5 97.5t74.5 109.5z" />
    <glyph glyph-name="uogonek" unicode="&#x173;" horiz-adv-x="1114" 
d="M850 10q-14 13 -14 47v109q-55 -93 -138.5 -139.5t-195.5 -46.5q-170 0 -262.5 104t-92.5 283v620q0 64 62 64q65 0 65 -64v-612q0 -125 64.5 -200t181.5 -75q147 0 231.5 98.5t84.5 260.5v528q0 64 63 64q64 0 64 -64v-930q0 -35 -19 -51q-49 -56 -77.5 -114.5
t-28.5 -96.5q0 -37 16 -55.5t49 -18.5q47 0 95 28q9 5 20 5q39 0 39 -45q0 -33 -54 -57.5t-116 -24.5q-82 0 -123 36.5t-41 109.5q0 52 31.5 111.5t95.5 125.5z" />
    <glyph glyph-name="Ydieresis" unicode="&#x178;" horiz-adv-x="1028" 
d="M565 547v-490q0 -63 -63 -63q-66 0 -66 63v488q-159 151 -273 386t-114 406q0 62 66 62q63 0 63 -64q0 -147 90.5 -341t231.5 -343q142 144 243 348t107 338q2 35 17.5 48.5t47.5 13.5q64 0 64 -66q0 -149 -124.5 -390.5t-289.5 -395.5zM684 1540q-35 0 -60.5 25.5
t-25.5 60.5t25.5 60.5t60.5 25.5q37 0 61.5 -24.5t24.5 -61.5t-24.5 -61.5t-61.5 -24.5zM321 1540q-35 0 -60.5 25.5t-25.5 60.5t25.5 60.5t60.5 25.5q37 0 61.5 -24.5t24.5 -61.5t-24.5 -61.5t-61.5 -24.5z" />
    <glyph glyph-name="Zacute" unicode="&#x179;" horiz-adv-x="1051" 
d="M190 127h711q66 0 66 -64q0 -63 -66 -63h-774q-32 0 -53 20t-21 52q0 79 45.5 163.5t115 179.5t338.5 414q263 314 298 437h-682q-66 0 -66 63q0 64 66 64h745q32 0 54 -26t22 -58q0 -84 -75 -213t-412 -523q-267 -311 -312 -446zM760 1714l-201 -157q-37 -29 -55 -29
q-25 0 -44 18t-19 45q0 26 41 58l194 153q42 33 62 33q23 0 42 -17.5t19 -43.5t-39 -60z" />
    <glyph glyph-name="zacute" unicode="&#x17a;" horiz-adv-x="874" 
d="M172 119h573q64 0 64 -60q0 -59 -64 -59h-636q-36 0 -57 23.5t-21 60.5q0 71 74 174t338 363q198 194 245 305h-543q-63 0 -63 59t63 59h611q78 0 78 -75q0 -35 -38 -108t-107.5 -157t-275.5 -286q-199 -196 -241 -299zM649 1419l-201 -157q-37 -29 -55 -29q-25 0 -44 18
t-19 45q0 26 41 58l194 153q42 33 62 33q23 0 42 -17.5t19 -43.5t-39 -60z" />
    <glyph glyph-name="Zdotaccent" unicode="&#x17b;" horiz-adv-x="1051" 
d="M190 127h711q66 0 66 -64q0 -63 -66 -63h-774q-32 0 -53 20t-21 52q0 79 45.5 163.5t115 179.5t338.5 414q263 314 298 437h-682q-66 0 -66 63q0 64 66 64h745q32 0 54 -26t22 -58q0 -84 -75 -213t-412 -523q-267 -311 -312 -446zM547 1524q-41 0 -71 29.5t-30 70.5
q0 42 29.5 71.5t71.5 29.5q41 0 70.5 -30t29.5 -71q0 -42 -29 -71t-71 -29z" />
    <glyph glyph-name="zdotaccent" unicode="&#x17c;" horiz-adv-x="874" 
d="M172 119h573q64 0 64 -60q0 -59 -64 -59h-636q-36 0 -57 23.5t-21 60.5q0 71 74 174t338 363q198 194 245 305h-543q-63 0 -63 59t63 59h611q78 0 78 -75q0 -35 -38 -108t-107.5 -157t-275.5 -286q-199 -196 -241 -299zM463 1233q-41 0 -71 29.5t-30 70.5q0 42 29.5 71.5
t71.5 29.5q41 0 70.5 -30t29.5 -71q0 -42 -29 -71t-71 -29z" />
    <glyph glyph-name="Zcaron" unicode="&#x17d;" horiz-adv-x="1051" 
d="M190 127h711q66 0 66 -64q0 -63 -66 -63h-774q-32 0 -53 20t-21 52q0 79 45.5 163.5t115 179.5t338.5 414q263 314 298 437h-682q-66 0 -66 63q0 64 66 64h745q32 0 54 -26t22 -58q0 -84 -75 -213t-412 -523q-267 -311 -312 -446zM569 1653l188 122q32 21 52 21
q18 0 33.5 -16.5t15.5 -36.5q0 -19 -9.5 -32t-35.5 -30l-178 -117q-37 -24 -66 -24q-28 0 -65 24l-173 111q-51 33 -51 64q0 23 15 40t36 17q17 0 39 -14z" />
    <glyph glyph-name="zcaron" unicode="&#x17e;" horiz-adv-x="874" 
d="M172 119h573q64 0 64 -60q0 -59 -64 -59h-636q-36 0 -57 23.5t-21 60.5q0 71 74 174t338 363q198 194 245 305h-543q-63 0 -63 59t63 59h611q78 0 78 -75q0 -35 -38 -108t-107.5 -157t-275.5 -286q-199 -196 -241 -299zM441 1346l188 122q32 21 52 21q18 0 33.5 -16.5
t15.5 -36.5q0 -19 -9.5 -32t-35.5 -30l-178 -117q-37 -24 -66 -24q-28 0 -65 24l-173 111q-51 33 -51 64q0 23 15 40t36 17q17 0 39 -14z" />
    <glyph glyph-name="florin" unicode="&#x192;" horiz-adv-x="1006" 
d="M492 760l-103 -844q-14 -115 -54 -194t-104 -116.5t-155 -37.5q-53 0 -102.5 16t-49.5 58q0 26 17 47.5t39 21.5q11 0 17 -2q47 -20 89 -20q74 0 118.5 52t59.5 198l101 821h-113q-32 0 -44.5 14t-12.5 45q0 60 71 60h113l22 184q21 179 102 264.5t228 85.5
q52 0 99 -16.5t47 -55.5q0 -24 -13.5 -46.5t-36.5 -22.5q-12 0 -39 8q-34 12 -71 12q-84 0 -129.5 -56t-59.5 -175l-22 -182h174q57 0 57 -48q0 -71 -71 -71h-174z" />
    <glyph glyph-name="Scommaaccent" unicode="&#x218;" horiz-adv-x="1042" 
d="M508 -20q-173 0 -298.5 70.5t-125.5 125.5q0 25 19 45.5t42 20.5q24 0 52 -23q142 -117 311 -117q134 0 214.5 72.5t80.5 198.5q0 76 -35.5 127t-91 80.5t-189.5 70.5q-154 45 -224 89.5t-110 116.5t-40 177q0 169 119.5 274t295.5 105q152 0 268.5 -68t116.5 -122
q0 -25 -18.5 -44.5t-44.5 -19.5q-16 0 -26.5 7.5t-30.5 23.5q-80 60 -139.5 80t-125.5 20q-132 0 -209 -70t-77 -186q0 -73 32.5 -120.5t84.5 -75.5t171 -62q242 -69 322 -165t80 -238q0 -176 -119.5 -284.5t-304.5 -108.5zM502 -393q-28 0 -42.5 15t-14.5 34q0 14 18 40
t18 56q0 17 -6 35q-6 17 -6 33q0 61 68 61q31 0 47 -23t16 -83q0 -62 -28 -115t-70 -53z" />
    <glyph glyph-name="scommaaccent" unicode="&#x219;" horiz-adv-x="895" 
d="M442 -20q-81 0 -147.5 17t-130.5 53.5t-77 54.5t-13 40q0 25 17.5 44.5t39.5 19.5q25 0 49 -19q51 -39 122.5 -64.5t139.5 -25.5q115 0 179.5 47t64.5 127q0 73 -51 112t-137 58q-140 29 -202.5 48t-107.5 52.5t-71.5 85t-26.5 130.5q0 135 104.5 220t266.5 85
q119 0 222 -47.5t103 -95.5q0 -24 -18.5 -47t-40.5 -23q-21 0 -49 20q-105 72 -219 72q-117 0 -179.5 -49.5t-62.5 -126.5q0 -59 31 -96.5t82 -57t185 -48.5q178 -38 238 -106t60 -177q0 -130 -99.5 -216.5t-271.5 -86.5zM425 -393q-28 0 -42.5 15t-14.5 34q0 14 18 40
t18 56q0 17 -6 35q-6 17 -6 33q0 61 68 61q31 0 47 -23t16 -83q0 -62 -28 -115t-70 -53z" />
    <glyph glyph-name="circumflex" unicode="&#x2c6;" horiz-adv-x="942" 
d="M471 1374l-188 -123q-31 -20 -52 -20q-18 0 -33.5 14t-15.5 39q0 19 9.5 32t35.5 30l179 116q39 25 65 25q27 0 66 -25l172 -110q51 -33 51 -64q0 -23 -14.5 -40t-34.5 -17q-19 0 -41 14z" />
    <glyph glyph-name="caron" unicode="&#x2c7;" horiz-adv-x="942" 
d="M471 1346l188 122q32 21 52 21q18 0 33.5 -16.5t15.5 -36.5q0 -19 -9.5 -32t-35.5 -30l-178 -117q-37 -24 -66 -24q-28 0 -65 24l-173 111q-51 33 -51 64q0 23 15 40t36 17q17 0 39 -14z" />
    <glyph glyph-name="macron" unicode="&#x2c9;" horiz-adv-x="942" 
d="M684 1235h-428q-44 0 -58 15.5t-14 41.5t14 42t58 16h428q44 0 59 -15t15 -43q0 -57 -74 -57z" />
    <glyph glyph-name="breve" unicode="&#x2d8;" horiz-adv-x="874" 
d="M436 1233q-103 0 -177.5 62t-74.5 124q0 22 17.5 36.5t40.5 14.5q21 0 36 -20q41 -55 59 -72.5t41 -27t58 -9.5q80 0 127 65q30 40 43 52t29 12q22 0 38.5 -14.5t16.5 -36.5q0 -63 -74 -124.5t-180 -61.5z" />
    <glyph glyph-name="dotaccent" unicode="&#x2d9;" horiz-adv-x="569" 
d="M285 1233q-41 0 -71 29.5t-30 70.5q0 42 29.5 71.5t71.5 29.5q41 0 70.5 -30t29.5 -71q0 -42 -29 -71t-71 -29z" />
    <glyph glyph-name="ring" unicode="&#x2da;" horiz-adv-x="737" 
d="M369 1238q-75 0 -130 53.5t-55 131.5q0 79 55 132t130 53t130 -53t55 -132q0 -78 -55.5 -131.5t-129.5 -53.5zM369 1533q-46 0 -78 -30.5t-32 -79.5q0 -48 32 -79t78 -31q45 0 77.5 31t32.5 79t-32.5 79t-77.5 31z" />
    <glyph glyph-name="ogonek" unicode="&#x2db;" horiz-adv-x="885" 
d="M512 18h96q-60 -69 -88 -129t-28 -94q0 -37 16 -55.5t49 -18.5q47 0 95 28q9 5 20 5q39 0 39 -45q0 -32 -54.5 -57t-115.5 -25q-82 0 -123 36.5t-41 109.5q0 53 33.5 114.5t101.5 130.5z" />
    <glyph glyph-name="tilde" unicode="&#x2dc;" horiz-adv-x="958" 
d="M600 1233q-41 0 -119 31q-79 30 -116 30q-34 0 -67 -30q-34 -31 -54 -31q-23 0 -41.5 14.5t-18.5 40.5q0 37 57.5 79t116.5 42q44 0 120 -30q75 -31 118 -31q32 0 66 31q34 30 53 30q25 0 42 -14.5t17 -40.5q0 -37 -57 -79t-117 -42z" />
    <glyph glyph-name="hungarumlaut" unicode="&#x2dd;" horiz-adv-x="672" 
d="M604 1419l-147 -157q-27 -29 -56 -29q-21 0 -40 15.5t-19 43.5q0 12 6.5 23.5t34.5 42.5l145 158q26 28 58 28q20 0 38.5 -18.5t18.5 -44.5q0 -19 -39 -62zM295 1419l-148 -157q-27 -29 -55 -29q-22 0 -40.5 15.5t-18.5 43.5q0 12 6.5 23.5t34.5 42.5l145 158
q26 28 57 28q20 0 39 -18.5t19 -44.5q0 -19 -39 -62z" />
    <glyph glyph-name="tonos" unicode="&#x384;" horiz-adv-x="479" 
d="M236 1243q-20 -35 -50 -35q-19 0 -36 13q-35 18 -35 47q0 18 12 37l152 264q20 35 49 35q16 0 42.5 -18.5t26.5 -45.5q0 -17 -10 -35z" />
    <glyph glyph-name="dieresistonos" unicode="&#x385;" horiz-adv-x="954" 
d="M522 1255q-12 -47 -57 -47q-53 0 -53 52q0 16 4 28l65 271q11 47 58 47q55 0 55 -58q0 -10 -4 -22zM684 1233q-35 0 -60.5 25.5t-25.5 60.5t25.5 60.5t60.5 25.5q37 0 61.5 -24.5t24.5 -61.5t-24.5 -61.5t-61.5 -24.5zM270 1233q-35 0 -60.5 25.5t-25.5 60.5t25.5 60.5
t60.5 25.5q37 0 61.5 -24.5t24.5 -61.5t-24.5 -61.5t-61.5 -24.5z" />
    <glyph glyph-name="Alphatonos" unicode="&#x386;" horiz-adv-x="1171" 
d="M895 410h-612q-85 -277 -107 -367q-11 -49 -53 -49q-74 0 -74 57q0 39 63 244q104 337 174.5 525.5t171.5 399.5q73 152 90 165.5t42 13.5h14q26 0 41 -14t108 -211.5t170 -422t153 -500.5q46 -167 46 -202q0 -55 -71 -55q-43 0 -56 49q-16 84 -100 367zM858 535
q-111 367 -262 679q-157 -315 -274 -679h536zM170 1038q-20 -35 -50 -35q-19 0 -36 13q-35 18 -35 47q0 18 12 37l152 264q20 35 49 35q16 0 42.5 -18.5t26.5 -45.5q0 -17 -10 -35z" />
    <glyph glyph-name="anoteleia" unicode="&#x387;" horiz-adv-x="406" 
d="M203 532q-43 0 -72 29.5t-29 69.5q0 41 29 70.5t72 29.5q42 0 71 -29t29 -71q0 -39 -29.5 -69t-70.5 -30z" />
    <glyph glyph-name="Epsilontonos" unicode="&#x388;" horiz-adv-x="1217" 
d="M496 788h506q64 0 64 -65q0 -61 -64 -61h-506v-504q0 -31 27 -31h545q65 0 65 -61q0 -66 -65 -66h-563q-65 0 -101.5 35t-36.5 100v1102q0 69 35.5 112.5t114.5 43.5h551q65 0 65 -64q0 -63 -65 -63h-537q-15 0 -25 -11t-10 -28v-439zM90 1038q-20 -35 -50 -35
q-19 0 -36 13q-35 18 -35 47q0 18 12 37l152 264q20 35 49 35q16 0 42.5 -18.5t26.5 -45.5q0 -17 -10 -35z" />
    <glyph glyph-name="Etatonos" unicode="&#x389;" horiz-adv-x="1534" 
d="M1348 59q0 -65 -65 -65q-64 0 -64 65v590h-723v-590q0 -65 -65 -65q-64 0 -64 65v1276q0 64 64 64q65 0 65 -64v-559h723v559q0 64 64 64q65 0 65 -64v-1276zM90 1038q-20 -35 -50 -35q-19 0 -36 13q-35 18 -35 47q0 18 12 37l152 264q20 35 49 35q16 0 42.5 -18.5
t26.5 -45.5q0 -17 -10 -35z" />
    <glyph glyph-name="Iotatonos" unicode="&#x38a;" horiz-adv-x="682" 
d="M496 59q0 -65 -65 -65q-64 0 -64 65v1276q0 64 64 64q65 0 65 -64v-1276zM88 1038q-20 -35 -50 -35q-19 0 -36 13q-35 18 -35 47q0 18 12 37l152 264q20 35 49 35q16 0 42.5 -18.5t26.5 -45.5q0 -17 -10 -35z" />
    <glyph glyph-name="Omicrontonos" unicode="&#x38c;" horiz-adv-x="1530" 
d="M854 -20q-270 0 -429 201.5t-159 514.5q0 320 159.5 518.5t428.5 198.5t426.5 -201t157.5 -516q0 -311 -157.5 -513.5t-426.5 -202.5zM852 1290q-212 0 -334.5 -167t-122.5 -427q0 -259 124.5 -426.5t332.5 -167.5q212 0 334.5 168t122.5 426t-122.5 426t-334.5 168z
M111 1038q-20 -35 -50 -35q-19 0 -36 13q-35 18 -35 47q0 18 12 37l152 264q20 35 49 35q16 0 42.5 -18.5t26.5 -45.5q0 -17 -10 -35z" />
    <glyph glyph-name="Upsilontonos" unicode="&#x38e;" horiz-adv-x="1305" 
d="M843 547v-490q0 -63 -63 -63q-66 0 -66 63v488q-159 151 -273 386t-114 406q0 62 66 62q63 0 63 -64q0 -147 90.5 -341t231.5 -343q142 144 243 348t107 338q2 35 17.5 48.5t47.5 13.5q64 0 64 -66q0 -149 -124.5 -390.5t-289.5 -395.5zM78 1038q-20 -35 -50 -35
q-19 0 -36 13q-35 18 -35 47q0 18 12 37l152 264q20 35 49 35q16 0 42.5 -18.5t26.5 -45.5q0 -17 -10 -35z" />
    <glyph glyph-name="Omegatonos" unicode="&#x38f;" horiz-adv-x="1604" 
d="M880 1290q-109 0 -198 -40t-152 -113t-97 -174.5t-34 -223.5q0 -97 19 -181t59 -159t102 -144t147 -138q23 -17 23 -51q0 -31 -14.5 -48.5t-43.5 -17.5h-376q-36 0 -52 17.5t-16 48.5q0 30 15 45.5t51 15.5h243q-149 118 -217.5 272.5t-68.5 343.5q0 149 45 272.5
t125.5 212t192.5 137t247 48.5q134 0 246 -48.5t193 -137t126 -212t45 -272.5q0 -189 -68.5 -343.5t-218.5 -272.5h246q64 0 64 -61q0 -31 -16 -48.5t-50 -17.5h-379q-29 0 -43 17.5t-14 48.5q0 34 22 51q86 69 147.5 138t102 144t59.5 159t19 181q0 122 -34 223.5
t-97 174.5t-152 113t-198 40zM109 1038q-20 -35 -50 -35q-19 0 -36 13q-35 18 -35 47q0 18 12 37l152 264q20 35 49 35q16 0 42.5 -18.5t26.5 -45.5q0 -17 -10 -35z" />
    <glyph glyph-name="iotadieresistonos" unicode="&#x390;" horiz-adv-x="580" 
d="M279 266q0 -94 29 -132t98 -38q35 0 69 17q26 12 41 12q17 0 30 -18t13 -41q0 -50 -61.5 -68t-106.5 -18q-120 0 -179.5 73t-59.5 219v717q0 62 63 62q64 0 64 -62v-723zM291 1255q-12 -47 -57 -47q-53 0 -53 52q0 16 4 28l65 271q11 47 58 47q55 0 55 -58q0 -10 -4 -22z
M453 1233q-35 0 -60.5 25.5t-25.5 60.5t25.5 60.5t60.5 25.5q37 0 61.5 -24.5t24.5 -61.5t-24.5 -61.5t-61.5 -24.5zM39 1233q-35 0 -60.5 25.5t-25.5 60.5t25.5 60.5t60.5 25.5q37 0 61.5 -24.5t24.5 -61.5t-24.5 -61.5t-61.5 -24.5z" />
    <glyph glyph-name="Alpha" unicode="&#x391;" horiz-adv-x="1171" 
d="M895 410h-612q-85 -277 -107 -367q-11 -49 -53 -49q-74 0 -74 57q0 39 63 244q104 337 174.5 525.5t171.5 399.5q73 152 90 165.5t42 13.5h14q26 0 41 -14t108 -211.5t170 -422t153 -500.5q46 -167 46 -202q0 -55 -71 -55q-43 0 -56 49q-16 84 -100 367zM858 535
q-111 367 -262 679q-157 -315 -274 -679h536z" />
    <glyph glyph-name="Beta" unicode="&#x392;" horiz-adv-x="1167" 
d="M801 737q131 -23 202.5 -113t71.5 -225q0 -188 -119 -293.5t-317 -105.5h-317q-65 0 -101.5 35t-36.5 100v1102q0 69 35.5 112.5t114.5 43.5h270q206 0 309 -90.5t103 -270.5q0 -102 -60.5 -186.5t-154.5 -108.5zM313 793h310q116 0 190 64t74 167q0 127 -70 184.5
t-219 57.5h-250q-15 0 -25 -11t-10 -28v-434zM313 666v-514q0 -31 27 -31h307q141 0 220 71.5t79 204.5t-85 201t-245 68h-303z" />
    <glyph glyph-name="Gamma" unicode="&#x393;" horiz-adv-x="954" 
d="M860 1266h-518q-29 0 -29 -33v-1176q0 -63 -63 -63q-66 0 -66 63v1200q0 136 140 136h536q66 0 66 -66q0 -61 -66 -61z" />
    <glyph glyph-name="Delta" unicode="&#x394;" horiz-adv-x="1212" 
d="M1098 0h-983q-66 0 -66 61q0 15 17 81.5t52 183.5q70 235 163 461.5t179.5 397.5t106 192.5t43.5 21.5h15q33 0 50 -22t149.5 -305t235.5 -621q51 -169 77 -266.5t26 -123.5q0 -61 -65 -61zM195 127h821q-169 639 -400 1087q-308 -627 -421 -1087z" />
    <glyph glyph-name="Epsilon" unicode="&#x395;" horiz-adv-x="1032" 
d="M313 788h506q64 0 64 -65q0 -61 -64 -61h-506v-504q0 -31 27 -31h545q65 0 65 -61q0 -66 -65 -66h-563q-65 0 -101.5 35t-36.5 100v1102q0 69 35.5 112.5t114.5 43.5h551q65 0 65 -64q0 -63 -65 -63h-537q-15 0 -25 -11t-10 -28v-439z" />
    <glyph glyph-name="Zeta" unicode="&#x396;" horiz-adv-x="1051" 
d="M190 127h711q66 0 66 -64q0 -63 -66 -63h-774q-32 0 -53 20t-21 52q0 79 45.5 163.5t115 179.5t338.5 414q263 314 298 437h-682q-66 0 -66 63q0 64 66 64h745q32 0 54 -26t22 -58q0 -84 -75 -213t-412 -523q-267 -311 -312 -446z" />
    <glyph glyph-name="Eta" unicode="&#x397;" horiz-adv-x="1350" 
d="M1165 59q0 -65 -65 -65q-64 0 -64 65v590h-723v-590q0 -65 -65 -65q-64 0 -64 65v1276q0 64 64 64q65 0 65 -64v-559h723v559q0 64 64 64q65 0 65 -64v-1276z" />
    <glyph glyph-name="Theta" unicode="&#x398;" horiz-adv-x="1356" 
d="M680 -20q-270 0 -429 201.5t-159 514.5q0 320 159.5 518.5t428.5 198.5t426.5 -201t157.5 -516q0 -311 -157.5 -513.5t-426.5 -202.5zM678 1290q-212 0 -334.5 -167t-122.5 -427q0 -259 124.5 -426.5t332.5 -167.5q212 0 334.5 168t122.5 426t-122.5 426t-334.5 168z
M961 649h-566q-61 0 -61 62q0 59 61 59h566q61 0 61 -59q0 -62 -61 -62z" />
    <glyph glyph-name="Iota" unicode="&#x399;" horiz-adv-x="498" 
d="M313 59q0 -65 -65 -65q-64 0 -64 65v1276q0 64 64 64q65 0 65 -64v-1276z" />
    <glyph glyph-name="Kappa" unicode="&#x39a;" horiz-adv-x="1157" 
d="M473 686l-160 -123v-506q0 -63 -65 -63q-64 0 -64 63v1278q0 64 64 64q65 0 65 -64v-620q182 133 337 297t282 358q20 31 49 31q26 0 48 -18t22 -42q0 -12 -7 -28t-85.5 -122t-180.5 -216.5t-209 -202.5q135 -137 248 -274.5t201.5 -269.5t94 -147t5.5 -28q0 -23 -22 -42
t-47 -19q-29 0 -54 35q-128 198 -258.5 362.5t-263.5 296.5z" />
    <glyph glyph-name="Lambda" unicode="&#x39b;" horiz-adv-x="1171" 
d="M596 1214q-163 -333 -269 -661.5t-151 -509.5q-11 -49 -53 -49q-74 0 -74 57q0 16 18 85.5t55 192.5q74 246 159.5 476.5t170 401.5t100 181.5t46.5 10.5q27 0 40.5 -9.5t65.5 -112t126 -280.5t140 -389.5t109 -365.5q21 -77 32 -125t11 -66q0 -55 -71 -55q-46 0 -56 49
q-27 129 -147 516.5t-252 652.5z" />
    <glyph glyph-name="Mu" unicode="&#x39c;" horiz-adv-x="1565" 
d="M1380 57q0 -63 -63 -63q-57 0 -57 63v1198l-402 -745q-29 -53 -76 -53q-44 0 -80 52l-397 746v-1198q0 -63 -59 -63q-62 0 -62 63v1231q0 47 28.5 79t76.5 32q68 0 98 -56l395 -733l396 733q30 56 98 56q48 0 76 -32t28 -79v-1231z" />
    <glyph glyph-name="Nu" unicode="&#x39d;" horiz-adv-x="1360" 
d="M1176 96q0 -45 -29.5 -73.5t-77.5 -28.5q-62 0 -94 57l-670 1192v-1186q0 -63 -59 -63q-62 0 -62 63v1231q0 54 30 82.5t77 28.5q66 0 96 -56l668 -1189v1181q0 64 59 64q62 0 62 -64v-1239z" />
    <glyph glyph-name="Xi" unicode="&#x39e;" horiz-adv-x="1073" 
d="M909 1270h-745q-62 0 -62 61q0 62 62 62h745q62 0 62 -62q0 -61 -62 -61zM827 653h-581q-62 0 -62 62q0 59 62 59h581q62 0 62 -59q0 -62 -62 -62zM930 0h-787q-61 0 -61 66q0 57 61 57h787q61 0 61 -57q0 -66 -61 -66z" />
    <glyph glyph-name="Omicron" unicode="&#x39f;" horiz-adv-x="1356" 
d="M680 -20q-270 0 -429 201.5t-159 514.5q0 320 159.5 518.5t428.5 198.5t426.5 -201t157.5 -516q0 -311 -157.5 -513.5t-426.5 -202.5zM678 1290q-212 0 -334.5 -167t-122.5 -427q0 -259 124.5 -426.5t332.5 -167.5q212 0 334.5 168t122.5 426t-122.5 426t-334.5 168z" />
    <glyph glyph-name="Pi" unicode="&#x3a0;" horiz-adv-x="1350" 
d="M1165 57q0 -63 -65 -63q-64 0 -64 63v1176q0 33 -28 33h-666q-29 0 -29 -33v-1176q0 -63 -63 -63q-66 0 -66 63v1200q0 136 140 136h702q139 0 139 -136v-1200z" />
    <glyph glyph-name="Rho" unicode="&#x3a1;" horiz-adv-x="1083" 
d="M313 543v-486q0 -63 -63 -63q-66 0 -66 63v1180q0 69 35.5 112.5t114.5 43.5h262q203 0 316.5 -112t113.5 -318q0 -188 -123 -304t-321 -116h-269zM313 670h279q138 0 221.5 80t83.5 213q0 151 -76 227t-227 76h-246q-15 0 -25 -11t-10 -28v-557z" />
    <glyph glyph-name="Sigma" unicode="&#x3a3;" horiz-adv-x="1030" 
d="M231 1266q62 -108 166 -235t250 -273q17 -17 17 -35q0 -20 -17 -37q-175 -175 -287 -314.5t-161 -244.5h749q62 0 62 -64q0 -63 -62 -63h-833q-64 0 -64 63q0 94 157 305.5t308 352.5q-213 214 -319.5 365t-106.5 239q0 68 74 68h715q65 0 65 -64q0 -63 -65 -63h-648z
" />
    <glyph glyph-name="Tau" unicode="&#x3a4;" horiz-adv-x="973" 
d="M551 1266v-1207q0 -65 -64 -65q-65 0 -65 65v1207h-340q-66 0 -66 63q0 64 66 64h809q65 0 65 -64q0 -63 -65 -63h-340z" />
    <glyph glyph-name="Upsilon" unicode="&#x3a5;" horiz-adv-x="1028" 
d="M565 547v-490q0 -63 -63 -63q-66 0 -66 63v488q-159 151 -273 386t-114 406q0 62 66 62q63 0 63 -64q0 -147 90.5 -341t231.5 -343q142 144 243 348t107 338q2 35 17.5 48.5t47.5 13.5q64 0 64 -66q0 -149 -124.5 -390.5t-289.5 -395.5z" />
    <glyph glyph-name="Phi" unicode="&#x3a6;" horiz-adv-x="1356" 
d="M741 39q0 -66 -65 -66q-64 0 -64 66v154q-237 5 -378.5 150t-141.5 353q0 212 142.5 355.5t377.5 146.5v158q0 63 64 63q65 0 65 -63v-156q237 -3 379 -149.5t142 -354.5q0 -206 -140.5 -352t-380.5 -151v-154zM612 1087q-180 -2 -285.5 -115t-105.5 -276
q0 -159 103.5 -274t287.5 -119v784zM741 303q191 7 291.5 122.5t100.5 270.5q0 161 -105.5 275t-286.5 116v-784z" />
    <glyph glyph-name="Chi" unicode="&#x3a7;" horiz-adv-x="1104" 
d="M651 707q186 -172 279.5 -331t93.5 -317q0 -65 -60 -65q-69 0 -69 63q0 132 -79 267.5t-253 304.5q-188 -172 -274 -308.5t-86 -265.5q0 -61 -61 -61q-66 0 -66 65q0 151 101 310.5t300 337.5q-184 176 -266 327.5t-82 298.5q0 66 66 66q63 0 63 -64q0 -129 72 -259
t235 -292q163 157 249.5 293t86.5 260q0 62 66 62q61 0 61 -66q0 -143 -97 -298t-280 -328z" />
    <glyph glyph-name="Psi" unicode="&#x3a8;" horiz-adv-x="1473" 
d="M801 59q0 -65 -66 -65q-63 0 -63 65v291q-250 20 -379 156.5t-129 361.5v467q0 64 63 64q66 0 66 -64v-467q0 -165 101 -268t278 -121v856q0 64 63 64q66 0 66 -64v-856q175 18 277 127t102 262v467q0 64 63 64q66 0 66 -64v-467q0 -213 -135 -355t-373 -163v-291z" />
    <glyph glyph-name="Omega" unicode="&#x3a9;" horiz-adv-x="1438" 
d="M719 1290q-109 0 -198 -40t-152 -113t-97 -174.5t-34 -223.5q0 -97 19 -181t59 -159t102 -144t147 -138q23 -17 23 -51q0 -31 -14.5 -48.5t-43.5 -17.5h-376q-36 0 -52 17.5t-16 48.5q0 30 15 45.5t51 15.5h243q-149 118 -217.5 272.5t-68.5 343.5q0 149 45 272.5
t125.5 212t192.5 137t247 48.5q134 0 246 -48.5t193 -137t126 -212t45 -272.5q0 -189 -68.5 -343.5t-218.5 -272.5h246q64 0 64 -61q0 -31 -16 -48.5t-50 -17.5h-379q-29 0 -43 17.5t-14 48.5q0 34 22 51q86 69 147.5 138t102 144t59.5 159t19 181q0 122 -34 223.5
t-97 174.5t-152 113t-198 40z" />
    <glyph glyph-name="Iotadieresis" unicode="&#x3aa;" horiz-adv-x="498" 
d="M313 59q0 -65 -65 -65q-64 0 -64 65v1276q0 64 64 64q65 0 65 -64v-1276zM429 1540q-35 0 -60.5 25.5t-25.5 60.5t25.5 60.5t60.5 25.5q37 0 61.5 -24.5t24.5 -61.5t-24.5 -61.5t-61.5 -24.5zM66 1540q-35 0 -60.5 25.5t-25.5 60.5t25.5 60.5t60.5 25.5q37 0 61.5 -24.5
t24.5 -61.5t-24.5 -61.5t-61.5 -24.5z" />
    <glyph glyph-name="Upsilondieresis" unicode="&#x3ab;" horiz-adv-x="1028" 
d="M565 547v-490q0 -63 -63 -63q-66 0 -66 63v488q-159 151 -273 386t-114 406q0 62 66 62q63 0 63 -64q0 -147 90.5 -341t231.5 -343q142 144 243 348t107 338q2 35 17.5 48.5t47.5 13.5q64 0 64 -66q0 -149 -124.5 -390.5t-289.5 -395.5zM685 1540q-35 0 -60.5 25.5
t-25.5 60.5t25.5 60.5t60.5 25.5q37 0 61.5 -24.5t24.5 -61.5t-24.5 -61.5t-61.5 -24.5zM322 1540q-35 0 -60.5 25.5t-25.5 60.5t25.5 60.5t60.5 25.5q37 0 61.5 -24.5t24.5 -61.5t-24.5 -61.5t-61.5 -24.5z" />
    <glyph glyph-name="alphatonos" unicode="&#x3ac;" horiz-adv-x="1214" 
d="M872 248q-50 -134 -140 -201t-220 -67q-199 0 -309.5 150t-110.5 394q0 239 116.5 390t319.5 151q125 0 213 -56.5t140 -168.5q28 78 92 144.5t110 66.5q22 0 42 -19.5t20 -50.5q0 -22 -37 -49q-85 -62 -119.5 -155t-34.5 -251q0 -151 42 -254t126 -159q33 -23 33 -50
q0 -26 -21.5 -47.5t-43.5 -21.5q-52 0 -122 79.5t-96 174.5zM526 944q-141 0 -224 -120t-83 -300q0 -202 79.5 -313t225.5 -111q142 0 222.5 120t80.5 341q0 180 -79.5 281.5t-221.5 101.5zM606 1243q-20 -35 -50 -35q-19 0 -36 13q-35 18 -35 47q0 18 12 37l152 264
q20 35 49 35q16 0 42.5 -18.5t26.5 -45.5q0 -17 -10 -35z" />
    <glyph glyph-name="epsilontonos" unicode="&#x3ad;" horiz-adv-x="928" 
d="M528 471q-155 0 -232 -46t-77 -138q0 -88 81.5 -138.5t217.5 -50.5q139 0 252 60q42 22 57 22q23 0 38.5 -19t15.5 -44q0 -48 -121 -92.5t-246 -44.5q-204 0 -313 82t-109 219q0 104 58 167t174 84q-96 22 -143.5 80.5t-47.5 153.5q0 128 105 213.5t288 85.5
q107 0 213.5 -42.5t106.5 -86.5q0 -21 -17.5 -43.5t-37.5 -22.5q-13 0 -56 23q-94 53 -209 53q-129 0 -197.5 -50.5t-68.5 -129.5q0 -88 67 -132t201 -44h140q67 0 67 -60q0 -59 -65 -59h-142zM567 1243q-20 -35 -50 -35q-19 0 -36 13q-35 18 -35 47q0 18 12 37l152 264
q20 35 49 35q16 0 42.5 -18.5t26.5 -45.5q0 -17 -10 -35z" />
    <glyph glyph-name="etatonos" unicode="&#x3ae;" horiz-adv-x="1114" 
d="M967 -369q0 -63 -62 -63q-65 0 -65 63v1028q0 142 -62 213.5t-186 71.5q-138 0 -225.5 -98t-87.5 -266v-523q0 -63 -64 -63q-63 0 -63 63v449q0 157 -12 262t-36 158q-22 46 -22 65q0 25 22.5 42.5t45.5 17.5q19 0 35.5 -13t29.5 -38q27 -51 41 -152q49 108 137 162.5
t215 54.5q175 0 267 -99.5t92 -271.5v-1063zM631 1243q-20 -35 -50 -35q-19 0 -36 13q-35 18 -35 47q0 18 12 37l152 264q20 35 49 35q16 0 42.5 -18.5t26.5 -45.5q0 -17 -10 -35z" />
    <glyph glyph-name="iotatonos" unicode="&#x3af;" horiz-adv-x="580" 
d="M279 266q0 -94 29 -132t98 -38q35 0 69 17q26 12 41 12q17 0 30 -18t13 -41q0 -50 -61.5 -68t-106.5 -18q-120 0 -179.5 73t-59.5 219v717q0 62 63 62q64 0 64 -62v-723zM256 1243q-20 -35 -50 -35q-19 0 -36 13q-35 18 -35 47q0 18 12 37l152 264q20 35 49 35
q16 0 42.5 -18.5t26.5 -45.5q0 -17 -10 -35z" />
    <glyph glyph-name="upsilondieresistonos" unicode="&#x3b0;" horiz-adv-x="1098" 
d="M147 412v577q0 62 64 62q63 0 63 -62v-565q0 -162 66 -243t199 -81q156 0 234.5 103.5t78.5 310.5q0 119 -29.5 228t-87.5 208q-12 24 -12 43q0 18 23 38t47 20q53 0 119.5 -167.5t66.5 -361.5q0 -243 -117 -392.5t-321 -149.5q-193 0 -293.5 113.5t-100.5 318.5z
M563 1255q-12 -47 -57 -47q-53 0 -53 52q0 16 4 28l65 271q11 47 58 47q55 0 55 -58q0 -10 -4 -22zM725 1233q-35 0 -60.5 25.5t-25.5 60.5t25.5 60.5t60.5 25.5q37 0 61.5 -24.5t24.5 -61.5t-24.5 -61.5t-61.5 -24.5zM311 1233q-35 0 -60.5 25.5t-25.5 60.5t25.5 60.5
t60.5 25.5q37 0 61.5 -24.5t24.5 -61.5t-24.5 -61.5t-61.5 -24.5z" />
    <glyph glyph-name="alpha" unicode="&#x3b1;" horiz-adv-x="1214" 
d="M872 248q-50 -134 -140 -201t-220 -67q-199 0 -309.5 150t-110.5 394q0 239 116.5 390t319.5 151q125 0 213 -56.5t140 -168.5q28 78 92 144.5t110 66.5q22 0 42 -19.5t20 -50.5q0 -22 -37 -49q-85 -62 -119.5 -155t-34.5 -251q0 -151 42 -254t126 -159q33 -23 33 -50
q0 -26 -21.5 -47.5t-43.5 -21.5q-52 0 -122 79.5t-96 174.5zM526 944q-141 0 -224 -120t-83 -300q0 -202 79.5 -313t225.5 -111q142 0 222.5 120t80.5 341q0 180 -79.5 281.5t-221.5 101.5z" />
    <glyph glyph-name="beta" unicode="&#x3b2;" 
d="M279 -371q0 -61 -66 -61q-61 0 -61 61v1504q0 191 104 297t285 106q162 0 269.5 -104.5t107.5 -253.5q0 -122 -52.5 -206t-156.5 -130q157 -41 236 -148t79 -280q0 -195 -123 -314.5t-313 -119.5q-107 0 -184 40t-125 121v-512zM279 1128v-696q0 -144 90 -238t221 -94
q136 0 221.5 87t85.5 227q0 161 -101.5 258.5t-279.5 97.5q-65 0 -65 59q0 64 65 64q127 0 199.5 75t72.5 201q0 105 -71.5 175.5t-175.5 70.5q-131 0 -196.5 -72t-65.5 -215z" />
    <glyph glyph-name="gamma" unicode="&#x3b3;" horiz-adv-x="1008" 
d="M504 270q49 233 203 507q77 137 131 205.5t84 68.5q25 0 45 -20t20 -42q0 -20 -26 -53q-77 -98 -147.5 -219t-134.5 -265q-128 -287 -128 -524v-297q0 -63 -62 -63q-65 0 -65 63v293q0 369 -117 634q-59 132 -124 227.5t-136 154.5q-27 23 -27 45q0 26 17.5 47t40.5 21
q24 0 62 -31.5t90 -93.5q105 -125 179.5 -302.5t94.5 -355.5z" />
    <glyph glyph-name="delta" unicode="&#x3b4;" horiz-adv-x="1100" 
d="M465 1036q-98 59 -146.5 125t-48.5 139q0 106 73 171t200 65q114 0 232 -49t118 -96q0 -25 -16.5 -46.5t-40.5 -21.5q-18 0 -50 18q-69 37 -129.5 55.5t-113.5 18.5q-72 0 -108 -30t-36 -89q0 -62 62 -113t205 -132q171 -99 256.5 -241.5t85.5 -328.5q0 -219 -131.5 -360
t-327.5 -141q-207 0 -332 138.5t-125 362.5q0 199 97.5 345.5t275.5 209.5zM569 965q-159 -38 -254.5 -171t-95.5 -313q0 -166 93.5 -273.5t236.5 -107.5q149 0 240.5 110t91.5 271q0 160 -78 281t-234 203z" />
    <glyph glyph-name="epsilon" unicode="&#x3b5;" horiz-adv-x="928" 
d="M528 471q-155 0 -232 -46t-77 -138q0 -88 81.5 -138.5t217.5 -50.5q139 0 252 60q42 22 57 22q23 0 38.5 -19t15.5 -44q0 -48 -121 -92.5t-246 -44.5q-204 0 -313 82t-109 219q0 104 58 167t174 84q-96 22 -143.5 80.5t-47.5 153.5q0 128 105 213.5t288 85.5
q107 0 213.5 -42.5t106.5 -86.5q0 -21 -17.5 -43.5t-37.5 -22.5q-13 0 -56 23q-94 53 -209 53q-129 0 -197.5 -50.5t-68.5 -129.5q0 -88 67 -132t201 -44h140q67 0 67 -60q0 -59 -65 -59h-142z" />
    <glyph glyph-name="zeta" unicode="&#x3b6;" horiz-adv-x="836" 
d="M584 1397h-416q-64 0 -64 59q0 60 64 60h549q63 0 63 -60q0 -36 -28 -57q-250 -187 -391.5 -415t-141.5 -458q0 -146 65 -219t230 -106q181 -39 242 -109t61 -162q0 -150 -139 -253t-209 -103q-24 0 -37.5 22.5t-13.5 43.5q0 31 41 51q128 60 179.5 112t51.5 121
q0 64 -43.5 101t-169.5 65q-198 44 -291.5 145t-93.5 291q0 239 139 477t353 394z" />
    <glyph glyph-name="eta" unicode="&#x3b7;" horiz-adv-x="1114" 
d="M967 -369q0 -63 -62 -63q-65 0 -65 63v1028q0 142 -62 213.5t-186 71.5q-138 0 -225.5 -98t-87.5 -266v-523q0 -63 -64 -63q-63 0 -63 63v449q0 157 -12 262t-36 158q-22 46 -22 65q0 25 22.5 42.5t45.5 17.5q19 0 35.5 -13t29.5 -38q27 -51 41 -152q49 108 137 162.5
t215 54.5q175 0 267 -99.5t92 -271.5v-1063z" />
    <glyph glyph-name="theta" unicode="&#x3b8;" horiz-adv-x="1090" 
d="M545 -20q-214 0 -333.5 207t-119.5 571q0 361 121.5 569.5t331.5 208.5q211 0 331.5 -210t120.5 -568q0 -362 -120 -570t-332 -208zM219 825h649q-10 283 -95.5 437.5t-227.5 154.5q-138 0 -228 -157t-98 -435zM868 707h-649q10 -292 95.5 -450.5t230.5 -158.5
q141 0 227.5 158t95.5 451z" />
    <glyph glyph-name="iota" unicode="&#x3b9;" horiz-adv-x="580" 
d="M279 266q0 -94 29 -132t98 -38q35 0 69 17q26 12 41 12q17 0 30 -18t13 -41q0 -50 -61.5 -68t-106.5 -18q-120 0 -179.5 73t-59.5 219v717q0 62 63 62q64 0 64 -62v-723z" />
    <glyph glyph-name="kappa" unicode="&#x3ba;" horiz-adv-x="969" 
d="M279 541q133 223 324 367q96 72 164.5 108.5t109.5 36.5q23 0 39 -21t16 -47q0 -32 -51 -55q-126 -55 -226 -130t-174 -169q177 -157 302 -342q63 -92 94.5 -151.5t31.5 -86.5q0 -21 -18.5 -40t-46.5 -19q-34 0 -58 43q-42 78 -86.5 148.5t-91.5 133.5q-95 126 -202 220
q-82 -107 -127 -207v-271q0 -65 -64 -65q-63 0 -63 65v928q0 64 63 64q64 0 64 -64v-446z" />
    <glyph glyph-name="lambda" unicode="&#x3bb;" horiz-adv-x="991" 
d="M512 756q-119 -196 -204 -376.5t-136 -346.5q-10 -37 -55 -37q-66 0 -66 57q0 35 34.5 123.5t103.5 231.5q139 286 276 483l-47 141q-89 267 -130.5 319t-117.5 74q-35 12 -35 43q0 72 55 72q66 0 126 -41t100 -110.5t108 -270.5l279 -811q31 -89 61 -129.5t80 -77.5
q27 -20 27 -43t-16.5 -43t-39.5 -20q-60 0 -120 60.5t-101 176.5z" />
    <glyph glyph-name="mu" unicode="&#x3bc;" horiz-adv-x="1118" 
d="M967 57q0 -63 -64 -63q-63 0 -63 63v109q-49 -87 -136 -136.5t-194 -49.5q-69 0 -132.5 25.5t-98.5 68.5v-443q0 -63 -64 -63q-63 0 -63 63v1356q0 64 63 64q64 0 64 -64v-602q0 -139 65 -210t182 -71q140 0 227 97t87 264v522q0 64 63 64q64 0 64 -64v-930z" />
    <glyph glyph-name="nu" unicode="&#x3bd;" horiz-adv-x="961" 
d="M457 154q152 223 228.5 391t76.5 282q0 32 -11 68t-32 75q-8 14 -8 31q0 26 21.5 45t49.5 19q40 0 74.5 -68t34.5 -149q0 -122 -52 -253.5t-183 -346t-155 -234.5t-50 -20q-28 0 -43.5 11.5t-79.5 126t-138 308.5t-116.5 352.5t-42.5 198.5q0 62 71 62q48 0 58 -52
q37 -198 111 -409.5t186 -437.5z" />
    <glyph glyph-name="xi" unicode="&#x3be;" horiz-adv-x="885" 
d="M383 887q-73 32 -117.5 106.5t-44.5 155.5q0 82 40 144t120 104h-213q-64 0 -64 59q0 60 64 60h590q63 0 63 -60q0 -59 -63 -59h-111q-145 0 -222 -69t-77 -179q0 -106 71 -158.5t214 -52.5h65q64 0 64 -59q0 -60 -64 -60h-110q-173 0 -271 -81t-98 -218
q0 -128 72.5 -203t269.5 -116q184 -41 240.5 -111.5t56.5 -159.5q0 -150 -139 -253t-209 -103q-24 0 -37.5 22.5t-13.5 43.5q0 31 41 51q118 55 174.5 108t56.5 125q0 69 -51 106t-162 60q-230 48 -328 151.5t-98 274.5q0 142 72.5 235t218.5 136z" />
    <glyph glyph-name="omicron" unicode="&#x3bf;" horiz-adv-x="1100" 
d="M549 -20q-201 0 -329 146.5t-128 395.5q0 259 128 401t329 142q203 0 331 -144t128 -399q0 -248 -128.5 -395t-330.5 -147zM549 944q-140 0 -235 -105t-95 -317q0 -210 99.5 -316t230.5 -106q132 0 232 106t100 316q0 208 -93.5 315t-238.5 107z" />
    <glyph glyph-name="pi" unicode="&#x3c0;" horiz-adv-x="1219" 
d="M440 332q0 -167 -64 -259.5t-163 -92.5q-29 0 -45 20.5t-16 42.5q0 35 45 51q58 20 87 79.5t29 158.5v594h-10q-57 0 -100 -25t-72 -74q-18 -30 -47 -30q-23 0 -43.5 16.5t-20.5 44.5q0 45 76.5 115.5t235.5 70.5h803q63 0 63 -59t-63 -59h-191v-660q0 -85 26.5 -127.5
t80.5 -42.5q31 0 53 10q22 9 33 9q17 0 33 -18.5t16 -41.5q0 -35 -46.5 -55t-103.5 -20q-113 0 -166 69t-53 223v654h-377v-594z" />
    <glyph glyph-name="rho" unicode="&#x3c1;" 
d="M279 -371q0 -61 -66 -61q-61 0 -61 61v903q0 251 117.5 392t318.5 141t318.5 -141t117.5 -392q0 -252 -121.5 -402t-314.5 -150q-215 0 -309 180v-531zM279 532v-47q0 -171 82.5 -278t220.5 -107q143 0 229 116t86 316q0 198 -80 305t-229 107q-150 0 -229.5 -107
t-79.5 -305z" />
    <glyph glyph-name="sigma1" unicode="&#x3c2;" horiz-adv-x="893" 
d="M467 -426q-21 0 -35 22t-14 42t15 33.5t88 50.5q83 42 125 94t42 114q0 59 -51 99t-152 61q-197 45 -295 164.5t-98 314.5q0 233 115 364.5t317 131.5q93 0 180 -34t87 -75q0 -27 -18.5 -49t-41.5 -22q-15 0 -34 10q-99 49 -177 49q-147 0 -224 -98t-77 -277
q0 -152 77.5 -243.5t233.5 -124.5q173 -37 229 -107.5t56 -156.5q0 -155 -137 -259t-211 -104z" />
    <glyph glyph-name="sigma" unicode="&#x3c3;" horiz-adv-x="1133" 
d="M827 924q90 -63 135.5 -166t45.5 -246q0 -241 -126.5 -386.5t-332.5 -145.5q-205 0 -331 146.5t-126 385.5q0 243 132.5 387.5t344.5 144.5h480q63 0 63 -59q0 -61 -63 -61h-222zM563 924q-153 0 -248.5 -111.5t-95.5 -300.5q0 -188 90.5 -300t239.5 -112
q150 0 241 112.5t91 299.5q0 188 -86 300t-232 112z" />
    <glyph glyph-name="tau" unicode="&#x3c4;" horiz-adv-x="891" 
d="M764 1044q63 0 63 -59t-63 -59h-285v-660q0 -94 29.5 -132t97.5 -38q30 0 70 17q26 12 41 12q17 0 30 -18t13 -41q0 -48 -61 -67t-107 -19q-120 0 -180 73t-60 219v654h-59q-57 0 -100 -25t-72 -74q-18 -30 -47 -30q-23 0 -43.5 16.5t-20.5 44.5q0 45 77 115.5t235 70.5
h442z" />
    <glyph glyph-name="upsilon" unicode="&#x3c5;" horiz-adv-x="1098" 
d="M147 412v577q0 62 64 62q63 0 63 -62v-565q0 -162 66 -243t199 -81q156 0 234.5 103.5t78.5 310.5q0 119 -29.5 228t-87.5 208q-12 24 -12 43q0 18 23 38t47 20q53 0 119.5 -167.5t66.5 -361.5q0 -243 -117 -392.5t-321 -149.5q-193 0 -293.5 113.5t-100.5 318.5z" />
    <glyph glyph-name="phi" unicode="&#x3c6;" horiz-adv-x="1507" 
d="M811 -371q0 -61 -63 -61q-64 0 -64 61v371q-287 11 -435.5 147t-148.5 373q0 246 156.5 385t427.5 139v431q0 61 64 61q63 0 63 -61v-431q272 0 428 -139t156 -385q0 -237 -148.5 -373t-435.5 -147v-371zM811 115q230 10 345.5 111t115.5 294q0 196 -121.5 301
t-339.5 105v-811zM684 926q-218 0 -339.5 -105t-121.5 -301q0 -192 115 -293.5t346 -111.5v811z" />
    <glyph glyph-name="chi" unicode="&#x3c7;" horiz-adv-x="924" 
d="M627 29q77 -205 126 -265t124 -81q34 -11 34 -43q0 -72 -55 -72q-85 0 -164 71.5t-178 331.5l-88 236l-215 -367q-32 -54 -56 -109.5t-40 -113.5q-13 -49 -60 -49q-65 0 -65 57q0 46 31 120t94 177l258 426l-90 246q-68 187 -119 250t-129 94q-35 13 -35 43q0 72 55 72
q79 0 165 -77t175 -325l66 -180l129 219q54 92 89 170.5t50 143.5q12 49 57 49q68 0 68 -60q0 -48 -35.5 -132t-105.5 -204l-197 -331z" />
    <glyph glyph-name="psi" unicode="&#x3c8;" horiz-adv-x="1425" 
d="M776 115q182 5 278.5 97t96.5 355v422q0 62 63 62q64 0 64 -62v-422q0 -296 -127.5 -428t-374.5 -139v-371q0 -61 -63 -61q-64 0 -64 61v371q-247 7 -374.5 139t-127.5 428v422q0 62 64 62q63 0 63 -62v-422q0 -283 106.5 -366.5t268.5 -85.5v1360q0 61 64 61
q63 0 63 -61v-1360z" />
    <glyph glyph-name="omega" unicode="&#x3c9;" horiz-adv-x="1634" 
d="M819 238q-42 -129 -125.5 -193.5t-208.5 -64.5q-190 0 -299.5 140.5t-109.5 383.5q0 144 58 274.5t137.5 202.5t117.5 72q24 0 44 -22t20 -46q0 -28 -37 -53q-99 -66 -155 -179.5t-56 -246.5q0 -188 76.5 -297t203.5 -109q135 0 205 113.5t70 308.5v176q0 62 63 62
q64 0 64 -62v-176q0 -200 71.5 -311t204.5 -111q126 0 201.5 107.5t75.5 296.5q0 137 -58.5 251.5t-154.5 176.5q-37 24 -37 51q0 26 18.5 48t42.5 22q72 0 195 -156t123 -393q0 -241 -110 -382.5t-304 -141.5q-122 0 -212.5 70.5t-123.5 187.5z" />
    <glyph glyph-name="iotadieresis" unicode="&#x3ca;" horiz-adv-x="580" 
d="M279 266q0 -94 29 -132t98 -38q35 0 69 17q26 12 41 12q17 0 30 -18t13 -41q0 -50 -61.5 -68t-106.5 -18q-120 0 -179.5 73t-59.5 219v717q0 62 63 62q64 0 64 -62v-723zM404 1233q-35 0 -60.5 25.5t-25.5 60.5t25.5 60.5t60.5 25.5q37 0 61.5 -24.5t24.5 -61.5
t-24.5 -61.5t-61.5 -24.5zM41 1233q-35 0 -60.5 25.5t-25.5 60.5t25.5 60.5t60.5 25.5q37 0 61.5 -24.5t24.5 -61.5t-24.5 -61.5t-61.5 -24.5z" />
    <glyph glyph-name="upsilondieresis" unicode="&#x3cb;" horiz-adv-x="1098" 
d="M147 412v577q0 62 64 62q63 0 63 -62v-565q0 -162 66 -243t199 -81q156 0 234.5 103.5t78.5 310.5q0 119 -29.5 228t-87.5 208q-12 24 -12 43q0 18 23 38t47 20q53 0 119.5 -167.5t66.5 -361.5q0 -243 -117 -392.5t-321 -149.5q-193 0 -293.5 113.5t-100.5 318.5z
M711 1233q-35 0 -60.5 25.5t-25.5 60.5t25.5 60.5t60.5 25.5q37 0 61.5 -24.5t24.5 -61.5t-24.5 -61.5t-61.5 -24.5zM348 1233q-35 0 -60.5 25.5t-25.5 60.5t25.5 60.5t60.5 25.5q37 0 61.5 -24.5t24.5 -61.5t-24.5 -61.5t-61.5 -24.5z" />
    <glyph glyph-name="omicrontonos" unicode="&#x3cc;" horiz-adv-x="1100" 
d="M549 -20q-201 0 -329 146.5t-128 395.5q0 259 128 401t329 142q203 0 331 -144t128 -399q0 -248 -128.5 -395t-330.5 -147zM549 944q-140 0 -235 -105t-95 -317q0 -210 99.5 -316t230.5 -106q132 0 232 106t100 316q0 208 -93.5 315t-238.5 107zM590 1243
q-20 -35 -50 -35q-19 0 -36 13q-35 18 -35 47q0 18 12 37l152 264q20 35 49 35q16 0 42.5 -18.5t26.5 -45.5q0 -17 -10 -35z" />
    <glyph glyph-name="upsilontonos" unicode="&#x3cd;" horiz-adv-x="1098" 
d="M147 412v577q0 62 64 62q63 0 63 -62v-565q0 -162 66 -243t199 -81q156 0 234.5 103.5t78.5 310.5q0 119 -29.5 228t-87.5 208q-12 24 -12 43q0 18 23 38t47 20q53 0 119.5 -167.5t66.5 -361.5q0 -243 -117 -392.5t-321 -149.5q-193 0 -293.5 113.5t-100.5 318.5z
M561 1243q-20 -35 -50 -35q-19 0 -36 13q-35 18 -35 47q0 18 12 37l152 264q20 35 49 35q16 0 42.5 -18.5t26.5 -45.5q0 -17 -10 -35z" />
    <glyph glyph-name="omegatonos" unicode="&#x3ce;" horiz-adv-x="1634" 
d="M819 238q-42 -129 -125.5 -193.5t-208.5 -64.5q-190 0 -299.5 140.5t-109.5 383.5q0 144 58 274.5t137.5 202.5t117.5 72q24 0 44 -22t20 -46q0 -28 -37 -53q-99 -66 -155 -179.5t-56 -246.5q0 -188 76.5 -297t203.5 -109q135 0 205 113.5t70 308.5v176q0 62 63 62
q64 0 64 -62v-176q0 -200 71.5 -311t204.5 -111q126 0 201.5 107.5t75.5 296.5q0 137 -58.5 251.5t-154.5 176.5q-37 24 -37 51q0 26 18.5 48t42.5 22q72 0 195 -156t123 -393q0 -241 -110 -382.5t-304 -141.5q-122 0 -212.5 70.5t-123.5 187.5zM852 1243q-20 -35 -50 -35
q-19 0 -36 13q-35 18 -35 47q0 18 12 37l152 264q20 35 49 35q16 0 42.5 -18.5t26.5 -45.5q0 -17 -10 -35z" />
    <glyph glyph-name="afii10023" unicode="&#x401;" horiz-adv-x="1032" 
d="M313 788h506q64 0 64 -65q0 -61 -64 -61h-506v-504q0 -31 27 -31h545q65 0 65 -61q0 -66 -65 -66h-563q-65 0 -101.5 35t-36.5 100v1102q0 69 35.5 112.5t114.5 43.5h551q65 0 65 -64q0 -63 -65 -63h-537q-15 0 -25 -11t-10 -28v-439zM768 1540q-35 0 -60.5 25.5
t-25.5 60.5t25.5 60.5t60.5 25.5q37 0 61.5 -24.5t24.5 -61.5t-24.5 -61.5t-61.5 -24.5zM405 1540q-35 0 -60.5 25.5t-25.5 60.5t25.5 60.5t60.5 25.5q37 0 61.5 -24.5t24.5 -61.5t-24.5 -61.5t-61.5 -24.5z" />
    <glyph glyph-name="afii10051" unicode="&#x402;" horiz-adv-x="1403" 
d="M1255 -2q0 -215 -89 -322.5t-267 -107.5q-205 0 -205 74q0 26 14 44.5t35 18.5q18 0 52 -6q58 -12 106 -12q112 0 168.5 79t56.5 236v444q0 155 -68 220t-198 65h-309v-672q0 -65 -64 -65q-65 0 -65 65v1207h-299q-66 0 -66 63q0 64 66 64h809q65 0 65 -64q0 -63 -65 -63
h-381v-414h326q189 0 283.5 -93t94.5 -278v-483z" />
    <glyph glyph-name="afii10052" unicode="&#x403;" horiz-adv-x="954" 
d="M860 1266h-518q-29 0 -29 -33v-1176q0 -63 -63 -63q-66 0 -66 63v1200q0 136 140 136h536q66 0 66 -66q0 -61 -66 -61zM765 1726l-201 -157q-37 -29 -55 -29q-25 0 -44 18t-19 45q0 26 41 58l194 153q42 33 62 33q23 0 42 -17.5t19 -43.5t-39 -60z" />
    <glyph glyph-name="afii10053" unicode="&#x404;" horiz-adv-x="1190" 
d="M223 764h596q64 0 64 -59q0 -64 -64 -64h-598q14 -258 140 -399.5t321 -141.5q175 0 336 129q28 23 51 23t37 -19t14 -40q0 -49 -136 -131t-304 -82q-272 0 -430 194t-158 522q0 320 170.5 518.5t439.5 198.5q165 0 282.5 -60.5t117.5 -113.5q0 -26 -19 -44.5t-39 -18.5
t-63 30q-121 86 -279 86q-198 0 -328 -139t-151 -389z" />
    <glyph glyph-name="afii10054" unicode="&#x405;" horiz-adv-x="1042" 
d="M508 -20q-173 0 -298.5 70.5t-125.5 125.5q0 25 19 45.5t42 20.5q24 0 52 -23q142 -117 311 -117q134 0 214.5 72.5t80.5 198.5q0 76 -35.5 127t-91 80.5t-189.5 70.5q-154 45 -224 89.5t-110 116.5t-40 177q0 169 119.5 274t295.5 105q152 0 268.5 -68t116.5 -122
q0 -25 -18.5 -44.5t-44.5 -19.5q-16 0 -26.5 7.5t-30.5 23.5q-80 60 -139.5 80t-125.5 20q-132 0 -209 -70t-77 -186q0 -73 32.5 -120.5t84.5 -75.5t171 -62q242 -69 322 -165t80 -238q0 -176 -119.5 -284.5t-304.5 -108.5z" />
    <glyph glyph-name="afii10055" unicode="&#x406;" horiz-adv-x="498" 
d="M313 59q0 -65 -65 -65q-64 0 -64 65v1276q0 64 64 64q65 0 65 -64v-1276z" />
    <glyph glyph-name="afii10056" unicode="&#x407;" horiz-adv-x="498" 
d="M313 59q0 -65 -65 -65q-64 0 -64 65v1276q0 64 64 64q65 0 65 -64v-1276zM429 1540q-35 0 -60.5 25.5t-25.5 60.5t25.5 60.5t60.5 25.5q37 0 61.5 -24.5t24.5 -61.5t-24.5 -61.5t-61.5 -24.5zM66 1540q-35 0 -60.5 25.5t-25.5 60.5t25.5 60.5t60.5 25.5q37 0 61.5 -24.5
t24.5 -61.5t-24.5 -61.5t-61.5 -24.5z" />
    <glyph glyph-name="afii10057" unicode="&#x408;" horiz-adv-x="905" 
d="M766 473q0 -240 -100.5 -366.5t-300.5 -126.5q-118 0 -220 44t-102 97q0 26 17 45.5t40 19.5q19 0 43 -14q118 -70 217 -70q141 0 209 92t68 281v860q0 64 63 64q66 0 66 -64v-862z" />
    <glyph glyph-name="afii10058" unicode="&#x409;" horiz-adv-x="1956" 
d="M567 1266q-25 0 -30 -33l-21 -178q-32 -270 -86 -523t-108 -387q-25 -62 -41 -97t-30 -48.5t-34 -13.5q-24 0 -48 17t-24 40q0 13 9 31q79 154 149.5 463.5t110.5 719.5q13 136 135 136h424q139 0 139 -136v-464h318q217 0 330.5 -103t113.5 -289q0 -189 -112.5 -295
t-317.5 -106h-311q-150 0 -150 156v1077q0 33 -29 33h-387zM1112 666v-500q0 -39 35 -39h295q151 0 227 68.5t76 205.5q0 132 -76.5 198.5t-228.5 66.5h-328z" />
    <glyph glyph-name="afii10059" unicode="&#x40a;" horiz-adv-x="1927" 
d="M954 666h-641v-607q0 -65 -65 -65q-64 0 -64 65v1276q0 64 64 64q65 0 65 -64v-542h641v542q0 64 66 64q63 0 63 -70v-536h318q217 0 330.5 -103t113.5 -289q0 -192 -113.5 -296.5t-316.5 -104.5h-311q-150 0 -150 156v510zM1083 666v-500q0 -39 35 -39h295
q151 0 227 68.5t76 205.5q0 132 -76.5 198.5t-228.5 66.5h-328z" />
    <glyph glyph-name="afii10060" unicode="&#x40b;" horiz-adv-x="1403" 
d="M551 1266v-414h326q189 0 283.5 -93t94.5 -278v-424q0 -63 -61 -63q-68 0 -68 63v389q0 155 -68 220t-198 65h-309v-672q0 -65 -64 -65q-65 0 -65 65v1207h-299q-66 0 -66 63q0 64 66 64h809q65 0 65 -64q0 -63 -65 -63h-381z" />
    <glyph glyph-name="afii10061" unicode="&#x40c;" horiz-adv-x="1096" 
d="M436 737q218 -159 420 -396q101 -119 152 -192t51 -100q0 -21 -22.5 -39t-47.5 -18q-29 0 -55 41q-51 80 -119.5 164.5t-154.5 174.5q-171 179 -347 308v-621q0 -65 -65 -65q-64 0 -64 65v1276q0 64 64 64q65 0 65 -64v-551q175 134 317 280q71 73 134.5 149.5
t118.5 156.5q20 31 49 31q26 0 47.5 -17.5t21.5 -42.5q0 -26 -51.5 -95.5t-154.5 -181.5q-205 -225 -359 -327zM804 1726l-201 -157q-37 -29 -55 -29q-25 0 -44 18t-19 45q0 26 41 58l194 153q42 33 62 33q23 0 42 -17.5t19 -43.5t-39 -60z" />
    <glyph glyph-name="afii10062" unicode="&#x40e;" horiz-adv-x="1049" 
d="M471 328q-184 294 -301 601.5t-117 409.5q0 62 68 62q31 0 41.5 -13t15.5 -42q35 -202 125.5 -426t237.5 -469q135 232 224.5 456.5t133.5 442.5q11 51 57 51q70 0 70 -51q0 -75 -90.5 -342t-252.5 -566q-81 -149 -146.5 -244t-115.5 -136q-100 -82 -208 -82
q-87 0 -149 33t-62 67q0 26 16.5 46.5t36.5 20.5q13 0 37 -12q66 -33 121 -33q65 0 123.5 49.5t134.5 176.5zM539 1516q-103 0 -177.5 62t-74.5 124q0 22 17.5 36.5t40.5 14.5q21 0 36 -20q41 -55 59 -72.5t41 -27t58 -9.5q80 0 127 65q30 40 43 52t29 12q22 0 38.5 -14.5
t16.5 -36.5q0 -63 -74 -124.5t-180 -61.5z" />
    <glyph glyph-name="afii10145" unicode="&#x40f;" horiz-adv-x="1350" 
d="M1165 135q0 -135 -139 -135h-262q-25 0 -25 -33v-151q0 -64 -65 -64q-64 0 -64 64v151q0 33 -24 33h-262q-140 0 -140 135v1200q0 64 66 64q63 0 63 -64v-1175q0 -33 29 -33h666q28 0 28 33v1175q0 64 64 64q65 0 65 -64v-1200z" />
    <glyph glyph-name="afii10017" unicode="&#x410;" horiz-adv-x="1171" 
d="M895 410h-612q-85 -277 -107 -367q-11 -49 -53 -49q-74 0 -74 57q0 39 63 244q104 337 174.5 525.5t171.5 399.5q73 152 90 165.5t42 13.5h14q26 0 41 -14t108 -211.5t170 -422t153 -500.5q46 -167 46 -202q0 -55 -71 -55q-43 0 -56 49q-16 84 -100 367zM858 535
q-111 367 -262 679q-157 -315 -274 -679h536z" />
    <glyph glyph-name="afii10018" unicode="&#x411;" horiz-adv-x="1157" 
d="M313 793h318q217 0 330.5 -103t113.5 -289q0 -192 -113.5 -296.5t-316.5 -104.5h-311q-150 0 -150 156v1101q0 136 140 136h526q65 0 65 -66q0 -61 -65 -61h-508q-29 0 -29 -33v-440zM313 666v-500q0 -39 35 -39h295q151 0 227 68.5t76 205.5q0 132 -76.5 198.5
t-228.5 66.5h-328z" />
    <glyph glyph-name="afii10019" unicode="&#x412;" horiz-adv-x="1167" 
d="M801 737q131 -23 202.5 -113t71.5 -225q0 -188 -119 -293.5t-317 -105.5h-317q-65 0 -101.5 35t-36.5 100v1102q0 69 35.5 112.5t114.5 43.5h270q206 0 309 -90.5t103 -270.5q0 -102 -60.5 -186.5t-154.5 -108.5zM313 793h310q116 0 190 64t74 167q0 127 -70 184.5
t-219 57.5h-250q-15 0 -25 -11t-10 -28v-434zM313 666v-514q0 -31 27 -31h307q141 0 220 71.5t79 204.5t-85 201t-245 68h-303z" />
    <glyph glyph-name="afii10020" unicode="&#x413;" horiz-adv-x="954" 
d="M860 1266h-518q-29 0 -29 -33v-1176q0 -63 -63 -63q-66 0 -66 63v1200q0 136 140 136h536q66 0 66 -66q0 -61 -66 -61z" />
    <glyph glyph-name="afii10021" unicode="&#x414;" horiz-adv-x="1288" 
d="M1075 127q71 -2 106.5 -36t35.5 -99v-197q0 -63 -66 -63q-64 0 -64 63v172q0 33 -28 33h-938q-23 0 -23 -33v-172q0 -63 -63 -63q-66 0 -66 63v197q0 67 38 101t114 34q97 183 164 465.5t104 664.5q6 68 41 102t98 34h408q69 0 104 -34t35 -102v-1130zM946 1233
q0 33 -28 33h-371q-28 0 -31 -35q-36 -350 -98 -626t-150 -478h654q24 4 24 33v1073z" />
    <glyph glyph-name="afii10022" unicode="&#x415;" horiz-adv-x="1032" 
d="M313 788h506q64 0 64 -65q0 -61 -64 -61h-506v-504q0 -31 27 -31h545q65 0 65 -61q0 -66 -65 -66h-563q-65 0 -101.5 35t-36.5 100v1102q0 69 35.5 112.5t114.5 43.5h551q65 0 65 -64q0 -63 -65 -63h-537q-15 0 -25 -11t-10 -28v-439z" />
    <glyph glyph-name="afii10024" unicode="&#x416;" horiz-adv-x="1530" 
d="M930 733q196 -119 389 -377q97 -129 145.5 -205t48.5 -100q0 -23 -19.5 -41t-47.5 -18q-31 0 -57 41q-85 129 -157 227.5t-131 166.5q-118 136 -274 241v-609q0 -65 -63 -65q-62 0 -62 65v609q-152 -104 -271 -239q-60 -68 -132.5 -167t-157.5 -229q-26 -41 -57 -41
q-28 0 -48 18t-20 41q0 22 47 97t142 203q189 255 393 380q-145 100 -335 331q-95 116 -142 185.5t-47 93.5q0 23 21 41.5t48 18.5q28 0 50 -31q57 -90 117 -170.5t124 -152.5q128 -144 268 -254v542q0 64 62 64q63 0 63 -64v-542q140 109 267 253q64 72 124.5 153
t118.5 171q22 31 49 31q26 0 48 -18t22 -42t-47 -93t-141 -183q-188 -229 -338 -332z" />
    <glyph glyph-name="afii10025" unicode="&#x417;" horiz-adv-x="1032" 
d="M616 731q152 -29 228 -115.5t76 -230.5q0 -187 -128 -296t-366 -109q-122 0 -250.5 53.5t-128.5 105.5q0 25 21 46.5t43 21.5q15 0 26 -6q162 -101 291 -101q176 0 269.5 75.5t93.5 205.5q0 140 -105 208t-342 68q-57 0 -57 64q0 59 57 59q183 0 293.5 70.5t110.5 202.5
q0 109 -79.5 174t-201.5 65q-123 0 -262 -86q-32 -20 -49 -20q-24 0 -43 20.5t-19 44.5q0 54 122.5 108t258.5 54q185 0 293.5 -97t108.5 -261q0 -119 -65.5 -200t-195.5 -124z" />
    <glyph glyph-name="afii10026" unicode="&#x418;" horiz-adv-x="1360" 
d="M1176 57q0 -63 -62 -63q-59 0 -59 63v1186l-670 -1192q-32 -57 -94 -57q-48 0 -77.5 28.5t-29.5 73.5v1239q0 64 62 64q59 0 59 -64v-1181l668 1189q31 56 96 56q46 0 76.5 -28.5t30.5 -82.5v-1231z" />
    <glyph glyph-name="afii10027" unicode="&#x419;" horiz-adv-x="1360" 
d="M1176 57q0 -63 -62 -63q-59 0 -59 63v1186l-670 -1192q-32 -57 -94 -57q-48 0 -77.5 28.5t-29.5 73.5v1239q0 64 62 64q59 0 59 -64v-1181l668 1189q31 56 96 56q46 0 76.5 -28.5t30.5 -82.5v-1231zM692 1528q-103 0 -177.5 62t-74.5 124q0 22 17.5 36.5t40.5 14.5
q21 0 36 -20q41 -55 59 -72.5t41 -27t58 -9.5q80 0 127 65q30 40 43 52t29 12q22 0 38.5 -14.5t16.5 -36.5q0 -63 -74 -124.5t-180 -61.5z" />
    <glyph glyph-name="afii10028" unicode="&#x41a;" horiz-adv-x="1096" 
d="M436 737q218 -159 420 -396q101 -119 152 -192t51 -100q0 -21 -22.5 -39t-47.5 -18q-29 0 -55 41q-51 80 -119.5 164.5t-154.5 174.5q-171 179 -347 308v-621q0 -65 -65 -65q-64 0 -64 65v1276q0 64 64 64q65 0 65 -64v-551q175 134 317 280q71 73 134.5 149.5
t118.5 156.5q20 31 49 31q26 0 47.5 -17.5t21.5 -42.5q0 -26 -51.5 -95.5t-154.5 -181.5q-205 -225 -359 -327z" />
    <glyph glyph-name="afii10029" unicode="&#x41b;" horiz-adv-x="1296" 
d="M1112 57q0 -63 -65 -63q-64 0 -64 63v1176q0 33 -29 33h-387q-25 0 -30 -33l-21 -178q-32 -270 -86 -523t-108 -387t-69.5 -146.5t-35.5 -12.5q-24 0 -48 17t-24 40q0 13 9 31q79 154 149.5 463.5t110.5 719.5q13 136 135 136h424q139 0 139 -136v-1200z" />
    <glyph glyph-name="afii10030" unicode="&#x41c;" horiz-adv-x="1565" 
d="M1380 57q0 -63 -63 -63q-57 0 -57 63v1198l-402 -745q-29 -53 -76 -53q-44 0 -80 52l-397 746v-1198q0 -63 -59 -63q-62 0 -62 63v1231q0 47 28.5 79t76.5 32q68 0 98 -56l395 -733l396 733q30 56 98 56q48 0 76 -32t28 -79v-1231z" />
    <glyph glyph-name="afii10031" unicode="&#x41d;" horiz-adv-x="1350" 
d="M1165 59q0 -65 -65 -65q-64 0 -64 65v590h-723v-590q0 -65 -65 -65q-64 0 -64 65v1276q0 64 64 64q65 0 65 -64v-559h723v559q0 64 64 64q65 0 65 -64v-1276z" />
    <glyph glyph-name="afii10032" unicode="&#x41e;" horiz-adv-x="1356" 
d="M680 -20q-270 0 -429 201.5t-159 514.5q0 320 159.5 518.5t428.5 198.5t426.5 -201t157.5 -516q0 -311 -157.5 -513.5t-426.5 -202.5zM678 1290q-212 0 -334.5 -167t-122.5 -427q0 -259 124.5 -426.5t332.5 -167.5q212 0 334.5 168t122.5 426t-122.5 426t-334.5 168z" />
    <glyph glyph-name="afii10033" unicode="&#x41f;" horiz-adv-x="1350" 
d="M1165 57q0 -63 -65 -63q-64 0 -64 63v1176q0 33 -28 33h-666q-29 0 -29 -33v-1176q0 -63 -63 -63q-66 0 -66 63v1200q0 136 140 136h702q139 0 139 -136v-1200z" />
    <glyph glyph-name="afii10034" unicode="&#x420;" horiz-adv-x="1083" 
d="M313 543v-486q0 -63 -63 -63q-66 0 -66 63v1180q0 69 35.5 112.5t114.5 43.5h262q203 0 316.5 -112t113.5 -318q0 -188 -123 -304t-321 -116h-269zM313 670h279q138 0 221.5 80t83.5 213q0 151 -76 227t-227 76h-246q-15 0 -25 -11t-10 -28v-557z" />
    <glyph glyph-name="afii10035" unicode="&#x421;" horiz-adv-x="1190" 
d="M680 -20q-272 0 -430 194t-158 522q0 320 170.5 518.5t439.5 198.5q165 0 282.5 -60.5t117.5 -113.5q0 -26 -19 -44.5t-39 -18.5q-12 0 -21.5 4t-41.5 26q-121 86 -279 86q-216 0 -348.5 -163.5t-132.5 -432.5q0 -278 126.5 -437t334.5 -159q85 0 164.5 27.5t171.5 101.5
q28 23 51 23t37 -19t14 -40q0 -49 -136 -131t-304 -82z" />
    <glyph glyph-name="afii10036" unicode="&#x422;" horiz-adv-x="973" 
d="M551 1266v-1207q0 -65 -64 -65q-65 0 -65 65v1207h-340q-66 0 -66 63q0 64 66 64h809q65 0 65 -64q0 -63 -65 -63h-340z" />
    <glyph glyph-name="afii10037" unicode="&#x423;" horiz-adv-x="1049" 
d="M471 328q-184 294 -301 601.5t-117 409.5q0 62 68 62q31 0 41.5 -13t15.5 -42q35 -202 125.5 -426t237.5 -469q135 232 224.5 456.5t133.5 442.5q11 51 57 51q70 0 70 -51q0 -75 -90.5 -342t-252.5 -566q-81 -149 -146.5 -244t-115.5 -136q-100 -82 -208 -82
q-87 0 -149 33t-62 67q0 26 16.5 46.5t36.5 20.5q13 0 37 -12q66 -33 121 -33q65 0 123.5 49.5t134.5 176.5z" />
    <glyph glyph-name="afii10038" unicode="&#x424;" horiz-adv-x="1356" 
d="M741 39q0 -66 -65 -66q-64 0 -64 66v154q-237 5 -378.5 150t-141.5 353q0 212 142.5 355.5t377.5 146.5v158q0 63 64 63q65 0 65 -63v-156q237 -3 379 -149.5t142 -354.5q0 -206 -140.5 -352t-380.5 -151v-154zM612 1087q-180 -2 -285.5 -115t-105.5 -276
q0 -159 103.5 -274t287.5 -119v784zM741 303q191 7 291.5 122.5t100.5 270.5q0 161 -105.5 275t-286.5 116v-784z" />
    <glyph glyph-name="afii10039" unicode="&#x425;" horiz-adv-x="1104" 
d="M651 707q186 -172 279.5 -331t93.5 -317q0 -65 -60 -65q-69 0 -69 63q0 132 -79 267.5t-253 304.5q-188 -172 -274 -308.5t-86 -265.5q0 -61 -61 -61q-66 0 -66 65q0 151 101 310.5t300 337.5q-184 176 -266 327.5t-82 298.5q0 66 66 66q63 0 63 -64q0 -129 72 -259
t235 -292q163 157 249.5 293t86.5 260q0 62 66 62q61 0 61 -66q0 -143 -97 -298t-280 -328z" />
    <glyph glyph-name="afii10040" unicode="&#x426;" horiz-adv-x="1370" 
d="M184 1335q0 64 66 64q63 0 63 -64v-1175q0 -33 29 -33h670q24 4 24 33v1175q0 64 64 64q65 0 65 -64v-1208h9q58 0 95.5 -35t37.5 -100v-197q0 -63 -66 -63q-63 0 -63 63v172q0 33 -29 33h-825q-140 0 -140 135v1200z" />
    <glyph glyph-name="afii10041" unicode="&#x427;" horiz-adv-x="1182" 
d="M868 1335q0 64 64 64q65 0 65 -64v-1276q0 -65 -65 -65q-64 0 -64 65v492q-172 -86 -344 -86q-188 0 -289.5 104.5t-101.5 278.5v487q0 64 64 64q65 0 65 -64v-475q0 -137 70 -205.5t211 -68.5q148 0 325 84v665z" />
    <glyph glyph-name="afii10042" unicode="&#x428;" horiz-adv-x="1882" 
d="M1540 127q29 0 29 33v1175q0 64 63 64q66 0 66 -64v-1200q0 -135 -139 -135h-1235q-140 0 -140 135v1200q0 64 66 64q63 0 63 -64v-1175q0 -33 29 -33h535v1208q0 64 63 64q66 0 66 -64v-1208h534z" />
    <glyph glyph-name="afii10043" unicode="&#x429;" horiz-adv-x="1903" 
d="M1698 127q141 0 141 -135v-197q0 -63 -65 -63q-64 0 -64 63v172q0 33 -29 33h-1357q-140 0 -140 135v1200q0 64 66 64q63 0 63 -64v-1175q0 -33 29 -33h535v1208q0 64 63 64q66 0 66 -64v-1208h534q29 0 29 33v1175q0 64 63 64q66 0 66 -64v-1208z" />
    <glyph glyph-name="afii10044" unicode="&#x42a;" horiz-adv-x="1419" 
d="M575 793h318q217 0 330.5 -103t113.5 -289q0 -192 -113.5 -296.5t-316.5 -104.5h-311q-150 0 -150 156v1077q0 33 -28 33h-324q-65 0 -65 61q0 66 65 66h342q139 0 139 -136v-464zM575 666v-500q0 -39 35 -39h295q151 0 227 68.5t76 205.5q0 132 -76.5 198.5t-228.5 66.5
h-328z" />
    <glyph glyph-name="afii10045" unicode="&#x42b;" horiz-adv-x="1552" 
d="M313 793h236q217 0 330.5 -103t113.5 -289q0 -192 -113.5 -296.5t-316.5 -104.5h-229q-150 0 -150 156v1179q0 64 66 64q63 0 63 -70v-536zM313 666v-500q0 -39 35 -39h213q151 0 227 68.5t76 205.5q0 132 -76.5 198.5t-228.5 66.5h-246zM1368 59q0 -65 -65 -65
q-64 0 -64 65v1276q0 64 64 64q65 0 65 -64v-1276z" />
    <glyph glyph-name="afii10046" unicode="&#x42c;" horiz-adv-x="1157" 
d="M313 793h318q217 0 330.5 -103t113.5 -289q0 -192 -113.5 -296.5t-316.5 -104.5h-311q-150 0 -150 156v1179q0 64 66 64q63 0 63 -70v-536zM313 666v-500q0 -39 35 -39h295q151 0 227 68.5t76 205.5q0 132 -76.5 198.5t-228.5 66.5h-328z" />
    <glyph glyph-name="afii10047" unicode="&#x42d;" horiz-adv-x="1190" 
d="M967 641h-596q-64 0 -64 64q0 59 64 59h596q-14 247 -142 386.5t-327 139.5q-147 0 -287 -86q-31 -18 -51 -18q-22 0 -39 20t-17 43q0 57 138 110.5t262 53.5q279 0 436.5 -190t157.5 -521q0 -341 -164 -531.5t-449 -190.5q-155 0 -292.5 61t-137.5 115q0 25 19.5 47
t40.5 22t63 -28q149 -95 307 -95q219 0 344.5 139t137.5 400z" />
    <glyph glyph-name="afii10048" unicode="&#x42e;" horiz-adv-x="1755" 
d="M594 649h-281v-590q0 -65 -65 -65q-64 0 -64 65v1276q0 64 64 64q65 0 65 -64v-559h283q19 295 164.5 466t369.5 171q245 0 389 -200t144 -517q0 -314 -144.5 -515t-388.5 -201q-232 0 -377 181t-159 488zM1128 1290q-189 0 -297 -168t-108 -426q0 -257 110 -425.5
t295 -168.5q190 0 298 168t108 426t-108 426t-298 168z" />
    <glyph glyph-name="afii10049" unicode="&#x42f;" horiz-adv-x="1139" 
d="M455 662q-160 15 -246 109t-86 241q0 165 118.5 273t327.5 108h234q151 0 151 -156v-1180q0 -63 -65 -63q-64 0 -64 63v570h-143q-162 0 -269 -149q-53 -74 -106.5 -182.5t-107.5 -250.5q-21 -53 -64 -53q-69 0 -69 63q0 18 30 91.5t91 202.5q122 258 268 313zM825 1227
q0 39 -37 39h-231q-144 0 -224.5 -67.5t-80.5 -188.5q0 -128 84 -192t252 -64h237v473z" />
    <glyph glyph-name="afii10065" unicode="&#x430;" 
d="M965 57q0 -63 -64 -63q-63 0 -63 63v99q-52 -88 -131 -132t-185 -44q-202 0 -316 149t-114 395q0 242 116.5 391.5t328.5 149.5q101 0 176 -40.5t125 -121.5v86q0 62 63 62q64 0 64 -62v-932zM838 623q0 142 -84 231.5t-213 89.5q-152 0 -237 -119t-85 -301
q0 -197 81 -310.5t241 -113.5q131 0 214 89.5t83 230.5v203z" />
    <glyph glyph-name="afii10066" unicode="&#x431;" horiz-adv-x="1100" 
d="M233 821q50 75 139.5 118.5t186.5 43.5q212 0 330.5 -136.5t118.5 -365.5q0 -224 -125.5 -362.5t-333.5 -138.5q-213 0 -335 155t-122 408q0 203 29.5 370.5t77 266t107.5 147.5t120.5 67t259.5 46q81 12 145 37.5t82 25.5q19 0 36.5 -17t17.5 -46q0 -39 -77.5 -73
t-221.5 -50q-160 -18 -228 -47t-125.5 -131t-81.5 -318zM559 862q-161 0 -250.5 -97t-89.5 -263q0 -170 93 -286t237 -116q153 0 242.5 105.5t89.5 275.5q0 181 -83 281t-239 100zM559 1044zM913 1536z" />
    <glyph glyph-name="afii10067" unicode="&#x432;" horiz-adv-x="1018" 
d="M715 551q105 -20 158 -83t53 -169q0 -135 -91.5 -217t-238.5 -82h-295q-149 0 -149 156v741q0 156 149 156h242q150 0 239.5 -72.5t89.5 -198.5q0 -92 -39.5 -149.5t-117.5 -81.5zM279 600h231q117 0 176 43t59 129q0 79 -56.5 118.5t-168.5 39.5h-207q-34 0 -34 -39
v-291zM279 162q0 -39 34 -39h260q113 0 169.5 44t56.5 132q0 91 -62 136.5t-186 45.5h-272v-319z" />
    <glyph glyph-name="afii10068" unicode="&#x433;" horiz-adv-x="840" 
d="M725 922h-418q-28 0 -28 -33v-832q0 -63 -62 -63q-65 0 -65 63v852q0 135 139 135h434q66 0 66 -63q0 -59 -66 -59z" />
    <glyph glyph-name="afii10069" unicode="&#x434;" horiz-adv-x="1133" 
d="M942 123q127 -10 127 -131v-197q0 -63 -65 -63q-62 0 -62 63v172q0 33 -29 33h-737q-22 0 -22 -33v-172q0 -63 -62 -63q-65 0 -65 63v197q0 131 145 131q80 152 138.5 348.5t95.5 437.5q19 135 153 135h244q139 0 139 -135v-786zM815 889q0 33 -29 33h-219q-27 0 -37 -33
q-34 -234 -88 -425.5t-127 -340.5h500v766z" />
    <glyph glyph-name="afii10070" unicode="&#x435;" horiz-adv-x="1042" 
d="M221 483q0 -167 96 -275t244 -108q63 0 128 20.5t112 51.5q32 21 47 21q24 0 40.5 -21t16.5 -45q0 -45 -107.5 -96t-238.5 -51q-215 0 -341 145t-126 387q0 240 124 396.5t337 156.5q188 0 295.5 -126.5t107.5 -338.5q0 -57 -25.5 -87t-70.5 -30h-639zM829 602
q0 152 -74.5 247t-205.5 95q-137 0 -225 -93.5t-99 -248.5h604z" />
    <glyph glyph-name="afii10072" unicode="&#x436;" horiz-adv-x="1286" 
d="M819 547q72 -45 143.5 -112.5t142.5 -157.5t106.5 -146t35.5 -78q0 -19 -22 -39t-45 -20q-30 0 -58 43q-90 147 -193.5 261.5t-221.5 195.5v-435q0 -65 -64 -65q-63 0 -63 65v435q-114 -79 -218 -193t-198 -264q-28 -43 -58 -43q-23 0 -45 19.5t-22 39.5q0 21 35 76.5
t105 145.5t142 158t146 114q-70 44 -138.5 105.5t-136.5 141.5t-101.5 128.5t-33.5 66.5q0 21 22.5 41.5t47.5 20.5q28 0 49 -33q79 -122 180 -226t224 -190v385q0 64 63 64q64 0 64 -64v-385q122 86 223 190t180 226q21 33 49 33q25 0 47.5 -20.5t22.5 -41.5
q0 -18 -34.5 -67.5t-103.5 -129.5q-69 -81 -137 -142t-135 -103z" />
    <glyph glyph-name="afii10073" unicode="&#x437;" horiz-adv-x="905" 
d="M573 535q115 -13 180.5 -79.5t65.5 -166.5q0 -140 -116.5 -224.5t-313.5 -84.5q-115 0 -233.5 43.5t-118.5 99.5q0 26 17.5 45.5t43.5 19.5q19 0 49 -20q113 -70 240 -70q139 0 221 49.5t82 143.5q0 91 -78 135.5t-268 44.5q-65 0 -65 59q0 60 67 60q153 0 230 45t77 135
q0 88 -63 132t-189 44q-118 0 -213 -61q-34 -23 -53 -23q-25 0 -43 21.5t-18 46.5q0 56 111 95.5t218 39.5q179 0 279 -75t100 -210q0 -96 -52.5 -157.5t-156.5 -87.5z" />
    <glyph glyph-name="afii10074" unicode="&#x438;" horiz-adv-x="1098" 
d="M946 57q0 -63 -61 -63q-58 0 -58 63v863l-479 -869q-31 -57 -90 -57q-49 0 -77.5 28.5t-28.5 73.5v891q0 64 61 64q57 0 57 -64v-858l478 866q31 56 92 56q46 0 76 -28.5t30 -82.5v-883z" />
    <glyph glyph-name="afii10075" unicode="&#x439;" horiz-adv-x="1098" 
d="M946 57q0 -63 -61 -63q-58 0 -58 63v863l-479 -869q-31 -57 -90 -57q-49 0 -77.5 28.5t-28.5 73.5v891q0 64 61 64q57 0 57 -64v-858l478 866q31 56 92 56q46 0 76 -28.5t30 -82.5v-883zM559 1233q-103 0 -177.5 62t-74.5 124q0 22 17.5 36.5t40.5 14.5q21 0 36 -20
q41 -55 59 -72.5t41 -27t58 -9.5q80 0 127 65q30 40 43 52t29 12q22 0 38.5 -14.5t16.5 -36.5q0 -63 -74 -124.5t-180 -61.5z" />
    <glyph glyph-name="afii10076" unicode="&#x43a;" horiz-adv-x="879" 
d="M397 547q77 -49 152 -117t148 -156t110 -143.5t37 -79.5q0 -18 -24 -37.5t-48 -19.5q-31 0 -57 43q-63 107 -185.5 238t-250.5 219v-435q0 -65 -64 -65q-63 0 -63 65v928q0 64 63 64q64 0 64 -64v-387q130 88 234 192.5t183 225.5q24 33 47 33q26 0 50 -20.5t24 -41.5
q0 -23 -36.5 -74t-109.5 -130t-141.5 -138.5t-132.5 -99.5z" />
    <glyph glyph-name="afii10077" unicode="&#x43b;" horiz-adv-x="936" 
d="M391 922q-32 0 -37 -33l-20 -148q-26 -194 -61.5 -348t-84.5 -268t-64.5 -128.5t-39.5 -14.5q-21 0 -43.5 16.5t-22.5 38.5q0 9 11 35q64 113 110.5 284t75.5 400l21 166q15 122 155 122h254q139 0 139 -135v-852q0 -63 -65 -63q-62 0 -62 63v832q0 33 -28 33h-238z" />
    <glyph glyph-name="afii10078" unicode="&#x43c;" horiz-adv-x="1290" 
d="M1139 57q0 -63 -64 -63q-55 0 -55 63v854l-299 -575q-28 -53 -76 -53q-55 0 -78 53l-297 575v-854q0 -63 -57 -63q-61 0 -61 63v883q0 46 27 78.5t75 32.5q70 0 98 -56l293 -571l293 571q29 56 98 56q48 0 75.5 -32.5t27.5 -78.5v-883z" />
    <glyph glyph-name="afii10079" unicode="&#x43d;" horiz-adv-x="1077" 
d="M926 59q0 -65 -66 -65q-61 0 -61 65v447h-520v-447q0 -65 -64 -65q-63 0 -63 65v928q0 64 63 64q64 0 64 -64v-358h520v358q0 64 61 64q66 0 66 -64v-928z" />
    <glyph glyph-name="afii10080" unicode="&#x43e;" horiz-adv-x="1100" 
d="M549 -20q-201 0 -329 146.5t-128 395.5q0 259 128 401t329 142q203 0 331 -144t128 -399q0 -248 -128.5 -395t-330.5 -147zM549 944q-140 0 -235 -105t-95 -317q0 -210 99.5 -316t230.5 -106q132 0 232 106t100 316q0 208 -93.5 315t-238.5 107z" />
    <glyph glyph-name="afii10081" unicode="&#x43f;" horiz-adv-x="1077" 
d="M926 57q0 -63 -66 -63q-61 0 -61 63v832q0 33 -29 33h-463q-28 0 -28 -33v-832q0 -63 -62 -63q-65 0 -65 63v852q0 135 139 135h495q140 0 140 -135v-852z" />
    <glyph glyph-name="afii10082" unicode="&#x440;" 
d="M575 100q144 0 233 117t89 315q0 194 -85.5 303t-236.5 109q-131 0 -213.5 -89.5t-82.5 -227.5v-209q0 -141 83 -229.5t213 -88.5zM573 -20q-98 0 -171.5 39.5t-122.5 119.5v-510q0 -61 -66 -61q-61 0 -61 61v1358q0 64 61 64q66 0 66 -64v-76q44 72 123 113t173 41
q211 0 330 -140t119 -393t-122.5 -402.5t-328.5 -149.5z" />
    <glyph glyph-name="afii10083" unicode="&#x441;" horiz-adv-x="987" 
d="M905 899q0 -25 -18 -44t-43 -19q-18 0 -56 28q-66 48 -118 64t-109 16q-153 0 -247.5 -114t-94.5 -308t91.5 -308t244.5 -114q124 0 236 86q38 29 57 29q26 0 42.5 -21t16.5 -44q0 -48 -111 -109t-245 -61q-207 0 -333 148.5t-126 393.5t133.5 394t339.5 149
q141 0 240.5 -59t99.5 -107z" />
    <glyph glyph-name="afii10084" unicode="&#x442;" horiz-adv-x="807" 
d="M467 922v-863q0 -65 -61 -65q-66 0 -66 65v863h-258q-66 0 -66 61t66 61h643q66 0 66 -61t-66 -61h-258z" />
    <glyph glyph-name="afii10085" unicode="&#x443;" horiz-adv-x="997" 
d="M453 14q-170 290 -278.5 581.5t-108.5 389.5q0 68 61 68q51 0 61 -56q22 -155 108 -384.5t224 -473.5q128 237 210.5 452.5t119.5 409.5q10 52 61 52q64 0 64 -52q0 -82 -77.5 -315.5t-239.5 -550.5q-81 -158 -150.5 -268t-127.5 -173q-117 -126 -257 -126q-67 0 -100 16
t-33 47q0 74 43 74q17 0 42 -6t54 -6q72 0 153 80.5t171 240.5z" />
    <glyph glyph-name="afii10086" unicode="&#x444;" horiz-adv-x="1368" 
d="M748 1065q228 0 378 -151t150 -392q0 -248 -148 -395t-380 -147v-351q0 -61 -64 -61q-63 0 -63 61v351q-236 0 -382.5 149t-146.5 393t151 393.5t378 149.5v369q0 61 63 61q64 0 64 -61v-369zM621 944q-181 0 -291.5 -113t-110.5 -309t103 -308t299 -114v844zM748 944
v-844q187 0 294 109t107 313q0 191 -109 306.5t-292 115.5z" />
    <glyph glyph-name="afii10087" unicode="&#x445;" horiz-adv-x="965" 
d="M588 528q154 -128 231.5 -246.5t77.5 -226.5q0 -61 -66 -61q-61 0 -61 63q0 87 -76 194t-202 206q-131 -100 -217.5 -210.5t-86.5 -191.5q0 -61 -58 -61q-69 0 -69 65q0 104 86 225t248 246q-132 114 -210.5 236.5t-78.5 224.5q0 60 64 60q63 0 63 -62q0 -78 69 -179.5
t192 -209.5q140 123 210 221t70 170q0 60 66 60q63 0 63 -62q0 -95 -79 -210.5t-236 -250.5z" />
    <glyph glyph-name="afii10088" unicode="&#x446;" 
d="M152 987q0 64 65 64q62 0 62 -64v-831q0 -33 28 -33h463q29 0 29 33v831q0 64 61 64q66 0 66 -64v-864q127 -8 127 -131v-197q0 -63 -66 -63q-61 0 -61 63v172q0 33 -29 33h-606q-139 0 -139 135v852z" />
    <glyph glyph-name="afii10089" unicode="&#x447;" horiz-adv-x="997" 
d="M845 57q0 -63 -65 -63q-62 0 -62 63v428q-42 -76 -112 -113.5t-168 -37.5q-152 0 -227.5 87.5t-75.5 262.5v303q0 64 63 64q64 0 64 -64v-268q0 -132 50 -198t150 -66q128 0 192 82t64 247v205q0 62 64 62q63 0 63 -62v-932z" />
    <glyph glyph-name="afii10090" unicode="&#x448;" horiz-adv-x="1495" 
d="M1343 135q0 -135 -139 -135h-913q-139 0 -139 135v852q0 64 65 64q62 0 62 -64v-831q0 -33 28 -33h377v864q0 64 66 64q61 0 61 -64v-864h377q29 0 29 33v831q0 64 61 64q65 0 65 -64v-852z" />
    <glyph glyph-name="afii10091" unicode="&#x449;" horiz-adv-x="1534" 
d="M1343 123q127 -8 127 -131v-197q0 -63 -65 -63q-62 0 -62 63v172q0 33 -28 33h-1024q-139 0 -139 135v852q0 64 65 64q62 0 62 -64v-831q0 -33 28 -33h377v864q0 64 66 64q61 0 61 -64v-864h377q29 0 29 33v831q0 64 61 64q65 0 65 -64v-864z" />
    <glyph glyph-name="afii10092" unicode="&#x44a;" horiz-adv-x="1194" 
d="M791 631q147 0 238 -86t91 -230q0 -142 -91 -228.5t-238 -86.5h-265q-149 0 -149 156v733q0 33 -29 33h-254q-65 0 -65 59q0 63 65 63h271q139 0 139 -135v-278h287zM504 162q0 -39 35 -39h229q106 0 165.5 52.5t59.5 139.5q0 91 -61 142t-164 51h-264v-346z" />
    <glyph glyph-name="afii10093" unicode="&#x44b;" horiz-adv-x="1327" 
d="M1176 57q0 -63 -66 -63q-61 0 -61 63v932q0 62 63 62q64 0 64 -62v-932zM279 631h235q148 0 239 -86.5t91 -229.5q0 -142 -90.5 -228.5t-239.5 -86.5h-213q-149 0 -149 156v831q0 64 65 64q62 0 62 -80v-340zM279 162q0 -39 34 -39h179q106 0 165.5 52.5t59.5 139.5
q0 91 -61 142t-164 51h-213v-346z" />
    <glyph glyph-name="afii10094" unicode="&#x44c;" horiz-adv-x="969" 
d="M279 631h286q148 0 239 -86.5t91 -229.5q0 -142 -90.5 -228.5t-239.5 -86.5h-264q-149 0 -149 156v831q0 64 65 64q62 0 62 -80v-340zM279 162q0 -39 34 -39h230q106 0 165.5 52.5t59.5 139.5q0 91 -61 142t-164 51h-264v-346z" />
    <glyph glyph-name="afii10095" unicode="&#x44d;" horiz-adv-x="987" 
d="M764 463h-406q-63 0 -63 63q0 60 63 60h408q-15 163 -111 260.5t-229 97.5q-107 0 -207 -61q-25 -15 -49 -15q-22 0 -38.5 20.5t-16.5 45.5q0 52 107 91.5t206 39.5q216 0 341.5 -147.5t125.5 -399.5q0 -256 -127.5 -397t-351.5 -141q-127 0 -230.5 49.5t-103.5 103.5
q0 23 20 41.5t41 18.5q22 0 66 -31q81 -58 207 -58q155 0 246 92t102 267z" />
    <glyph glyph-name="afii10096" unicode="&#x44e;" horiz-adv-x="1442" 
d="M455 506h-176v-447q0 -65 -64 -65q-63 0 -63 65v947q0 63 63 63q64 0 64 -63v-377h182q27 205 145 320.5t295 115.5q206 0 327.5 -146.5t121.5 -396.5q0 -245 -124 -393.5t-325 -148.5q-192 0 -316.5 141.5t-129.5 384.5zM901 944q-148 0 -233.5 -110.5t-85.5 -311.5
q0 -191 86 -306.5t233 -115.5q146 0 234 114t88 308q0 200 -85.5 311t-236.5 111z" />
    <glyph glyph-name="afii10097" unicode="&#x44f;" horiz-adv-x="961" 
d="M682 451h-123q-88 0 -185.5 -112t-185.5 -316q-12 -31 -47 -31q-75 0 -75 63q0 40 93 200.5t203 211.5q-116 20 -186 97t-70 188q0 136 93 218.5t243 82.5h217q150 0 150 -156v-831q0 -64 -66 -64q-61 0 -61 80v369zM682 891q0 39 -35 39h-188q-113 0 -169.5 -42
t-56.5 -126q0 -96 57 -143.5t171 -47.5h221v320z" />
    <glyph glyph-name="afii10071" unicode="&#x451;" horiz-adv-x="1042" 
d="M221 483q0 -167 96 -275t244 -108q63 0 128 20.5t112 51.5q32 21 47 21q24 0 40.5 -21t16.5 -45q0 -45 -107.5 -96t-238.5 -51q-215 0 -341 145t-126 387q0 240 124 396.5t337 156.5q188 0 295.5 -126.5t107.5 -338.5q0 -57 -25.5 -87t-70.5 -30h-639zM829 602
q0 152 -74.5 247t-205.5 95q-137 0 -225 -93.5t-99 -248.5h604zM717 1233q-35 0 -60.5 25.5t-25.5 60.5t25.5 60.5t60.5 25.5q37 0 61.5 -24.5t24.5 -61.5t-24.5 -61.5t-61.5 -24.5zM354 1233q-35 0 -60.5 25.5t-25.5 60.5t25.5 60.5t60.5 25.5q37 0 61.5 -24.5t24.5 -61.5
t-24.5 -61.5t-61.5 -24.5z" />
    <glyph glyph-name="afii10099" unicode="&#x452;" horiz-adv-x="1114" 
d="M967 -84q0 -174 -74 -261t-221 -87q-158 0 -158 74q0 26 14 44.5t35 18.5q13 0 31 -6q36 -12 80 -12q83 0 124.5 58.5t41.5 174.5v739q0 142 -62 213.5t-186 71.5q-138 0 -225.5 -98t-87.5 -266v-523q0 -63 -64 -63q-63 0 -63 63v1172h-80q-62 0 -62 61q0 60 62 60h80
v123q0 63 63 63q64 0 64 -63v-123h266q61 0 61 -60q0 -61 -61 -61h-266v-350q54 93 136.5 139.5t192.5 46.5q175 0 267 -99.5t92 -271.5v-778z" />
    <glyph glyph-name="afii10100" unicode="&#x453;" horiz-adv-x="840" 
d="M725 922h-418q-28 0 -28 -33v-832q0 -63 -62 -63q-65 0 -65 63v852q0 135 139 135h434q66 0 66 -63q0 -59 -66 -59zM694 1419l-201 -157q-37 -29 -55 -29q-25 0 -44 18t-19 45q0 26 41 58l194 153q42 33 62 33q23 0 42 -17.5t19 -43.5t-39 -60z" />
    <glyph glyph-name="afii10101" unicode="&#x454;" horiz-adv-x="987" 
d="M221 586h408q63 0 63 -60q0 -63 -63 -63h-406q11 -172 101 -265.5t247 -93.5q126 0 207 58q44 31 66 31q21 0 41 -19t20 -41q0 -54 -103.5 -103.5t-230.5 -49.5q-224 0 -351.5 141t-127.5 397q0 252 125.5 399.5t341.5 147.5q97 0 205 -39.5t108 -91.5q0 -25 -16.5 -45.5
t-38.5 -20.5q-23 0 -49 15q-100 61 -207 61q-133 0 -229 -98t-111 -260z" />
    <glyph glyph-name="afii10102" unicode="&#x455;" horiz-adv-x="895" 
d="M442 -20q-81 0 -147.5 17t-130.5 53.5t-77 54.5t-13 40q0 25 17.5 44.5t39.5 19.5q25 0 49 -19q51 -39 122.5 -64.5t139.5 -25.5q115 0 179.5 47t64.5 127q0 73 -51 112t-137 58q-140 29 -202.5 48t-107.5 52.5t-71.5 85t-26.5 130.5q0 135 104.5 220t266.5 85
q119 0 222 -47.5t103 -95.5q0 -24 -18.5 -47t-40.5 -23q-21 0 -49 20q-105 72 -219 72q-117 0 -179.5 -49.5t-62.5 -126.5q0 -59 31 -96.5t82 -57t185 -48.5q178 -38 238 -106t60 -177q0 -130 -99.5 -216.5t-271.5 -86.5z" />
    <glyph glyph-name="afii10103" unicode="&#x456;" horiz-adv-x="430" 
d="M215 1303q-37 0 -61 26t-24 60q0 35 25 60.5t60 25.5t60.5 -24.5t25.5 -61.5q0 -38 -24.5 -62t-61.5 -24zM279 57q0 -63 -66 -63q-61 0 -61 63v932q0 62 63 62q64 0 64 -62v-932z" />
    <glyph glyph-name="afii10104" unicode="&#x457;" horiz-adv-x="430" 
d="M279 57q0 -63 -66 -63q-61 0 -61 63v932q0 62 63 62q64 0 64 -62v-932zM408 1233q-35 0 -60.5 25.5t-25.5 60.5t25.5 60.5t60.5 25.5q37 0 61.5 -24.5t24.5 -61.5t-24.5 -61.5t-61.5 -24.5zM45 1233q-35 0 -60.5 25.5t-25.5 60.5t25.5 60.5t60.5 25.5q37 0 61.5 -24.5
t24.5 -61.5t-24.5 -61.5t-61.5 -24.5z" />
    <glyph glyph-name="afii10105" unicode="&#x458;" horiz-adv-x="430" 
d="M215 1303q-37 0 -61 26t-24 60q0 35 25 60.5t60 25.5t60.5 -24.5t25.5 -61.5q0 -38 -24.5 -62t-61.5 -24zM279 -84q0 -173 -75 -260.5t-220 -87.5q-58 0 -108 16t-50 58q0 26 13.5 44.5t35.5 18.5q13 0 31 -6q36 -12 80 -12q85 0 125.5 55t40.5 178v1067q0 64 63 64
q64 0 64 -64v-1071z" />
    <glyph glyph-name="afii10106" unicode="&#x459;" horiz-adv-x="1493" 
d="M1090 631q147 0 238 -86t91 -230q0 -142 -91 -228.5t-238 -86.5h-265q-149 0 -149 156v733q0 33 -29 33h-237q-32 0 -37 -33l-21 -148q-52 -370 -114.5 -536t-82.5 -194.5t-53 -28.5q-22 0 -43.5 16.5t-21.5 38.5q0 12 10 35q64 113 110.5 284t75.5 400l21 166
q15 122 156 122h254q139 0 139 -135v-278h287zM803 162q0 -39 35 -39h229q106 0 165.5 52.5t59.5 139.5q0 91 -61 142t-164 51h-264v-346z" />
    <glyph glyph-name="afii10107" unicode="&#x45a;" horiz-adv-x="1563" 
d="M745 508h-466v-449q0 -65 -64 -65q-63 0 -63 65v928q0 64 63 64q64 0 64 -64v-356h466v356q0 64 66 64q61 0 61 -80v-340h287q148 0 239 -86.5t91 -229.5q0 -142 -90.5 -228.5t-239.5 -86.5h-264q-150 0 -150 156v352zM872 162q0 -39 35 -39h230q106 0 165.5 52.5
t59.5 139.5q0 91 -61 142t-164 51h-265v-346z" />
    <glyph glyph-name="afii10108" unicode="&#x45b;" horiz-adv-x="1114" 
d="M279 1229v-350q54 93 136.5 139.5t192.5 46.5q175 0 267 -99.5t92 -271.5v-637q0 -63 -62 -63q-65 0 -65 63v602q0 142 -62 213.5t-186 71.5q-138 0 -225.5 -98t-87.5 -266v-523q0 -63 -64 -63q-63 0 -63 63v1172h-80q-62 0 -62 61q0 60 62 60h80v123q0 63 63 63
q64 0 64 -63v-123h266q61 0 61 -60q0 -61 -61 -61h-266z" />
    <glyph glyph-name="afii10109" unicode="&#x45c;" horiz-adv-x="879" 
d="M397 547q77 -49 152 -117t148 -156t110 -143.5t37 -79.5q0 -18 -24 -37.5t-48 -19.5q-31 0 -57 43q-63 107 -185.5 238t-250.5 219v-435q0 -65 -64 -65q-63 0 -63 65v928q0 64 63 64q64 0 64 -64v-387q130 88 234 192.5t183 225.5q24 33 47 33q26 0 50 -20.5t24 -41.5
q0 -23 -36.5 -74t-109.5 -130t-141.5 -138.5t-132.5 -99.5zM692 1419l-201 -157q-37 -29 -55 -29q-25 0 -44 18t-19 45q0 26 41 58l194 153q42 33 62 33q23 0 42 -17.5t19 -43.5t-39 -60z" />
    <glyph glyph-name="afii10110" unicode="&#x45e;" horiz-adv-x="997" 
d="M453 14q-170 290 -278.5 581.5t-108.5 389.5q0 68 61 68q51 0 61 -56q22 -155 108 -384.5t224 -473.5q128 237 210.5 452.5t119.5 409.5q10 52 61 52q64 0 64 -52q0 -82 -77.5 -315.5t-239.5 -550.5q-81 -158 -150.5 -268t-127.5 -173q-117 -126 -257 -126q-67 0 -100 16
t-33 47q0 74 43 74q17 0 42 -6t54 -6q72 0 153 80.5t171 240.5zM518 1233q-103 0 -177.5 62t-74.5 124q0 22 17.5 36.5t40.5 14.5q21 0 36 -20q41 -55 59 -72.5t41 -27t58 -9.5q80 0 127 65q30 40 43 52t29 12q22 0 38.5 -14.5t16.5 -36.5q0 -63 -74 -124.5t-180 -61.5z" />
    <glyph glyph-name="afii10193" unicode="&#x45f;" horiz-adv-x="1077" 
d="M926 135q0 -135 -140 -135h-155q-25 0 -25 -33v-151q0 -64 -65 -64q-62 0 -62 64v151q0 29 -24 33h-164q-139 0 -139 135v852q0 64 65 64q62 0 62 -64v-831q0 -33 28 -33h463q29 0 29 33v831q0 64 61 64q66 0 66 -64v-852z" />
    <glyph glyph-name="afii10050" unicode="&#x490;" horiz-adv-x="954" 
d="M926 1407q0 -141 -148 -141h-436q-29 0 -29 -33v-1176q0 -63 -63 -63q-66 0 -66 63v1200q0 136 140 136h440q33 0 33 28v256q0 66 63 66q66 0 66 -66v-270z" />
    <glyph glyph-name="afii10098" unicode="&#x491;" horiz-adv-x="840" 
d="M152 909q0 135 139 135h340q33 0 33 29v219q0 66 61 66q66 0 66 -66v-229q0 -141 -148 -141h-336q-28 0 -28 -33v-832q0 -63 -62 -63q-65 0 -65 63v852z" />
    <glyph glyph-name="figuredash" unicode="&#x2012;" horiz-adv-x="1016" 
d="M877 461h-738q-65 0 -65 57t65 57h738q65 0 65 -57t-65 -57z" />
    <glyph glyph-name="endash" unicode="&#x2013;" horiz-adv-x="999" 
d="M848 485h-696q-62 0 -62 62q0 59 62 59h696q61 0 61 -59q0 -62 -61 -62z" />
    <glyph glyph-name="emdash" unicode="&#x2014;" horiz-adv-x="1602" 
d="M1450 485h-1298q-62 0 -62 59q0 61 62 61h1298q61 0 61 -61q0 -59 -61 -59z" />
    <glyph glyph-name="emdash" unicode="&#x2015;" horiz-adv-x="1602" 
d="M1450 485h-1298q-62 0 -62 59q0 61 62 61h1298q61 0 61 -61q0 -59 -61 -59z" />
    <glyph glyph-name="quoteleft" unicode="&#x2018;" horiz-adv-x="389" 
d="M262 1407q22 0 36.5 -14.5t14.5 -34.5t-20 -55q-66 -105 -66 -263q0 -27 -15.5 -44t-43.5 -17q-66 0 -66 72q0 114 55 235t105 121z" />
    <glyph glyph-name="quoteright" unicode="&#x2019;" horiz-adv-x="389" 
d="M129 977q-22 0 -36.5 14.5t-14.5 34.5t20 55q66 105 66 262q0 28 15.5 45t43.5 17q66 0 66 -72q0 -114 -55 -235t-105 -121z" />
    <glyph glyph-name="quotesinglbase" unicode="&#x201a;" horiz-adv-x="406" 
d="M129 -258q-22 0 -36.5 14.5t-14.5 34.5t20 55q66 105 66 263q0 27 15.5 44t43.5 17q66 0 66 -72q0 -114 -55 -235t-105 -121zM213 -20z" />
    <glyph glyph-name="quotedblleft" unicode="&#x201c;" horiz-adv-x="678" 
d="M262 1407q22 0 36.5 -14.5t14.5 -34.5t-20 -55q-66 -105 -66 -263q0 -27 -15.5 -44t-43.5 -17q-66 0 -66 72q0 114 55 235t105 121zM549 1407q22 0 36.5 -14.5t14.5 -34.5t-20 -55q-66 -105 -66 -263q0 -27 -15.5 -44t-43.5 -17q-66 0 -66 72q0 115 55 235.5t105 120.5z
" />
    <glyph glyph-name="quotedblright" unicode="&#x201d;" horiz-adv-x="676" 
d="M416 977q-22 0 -36.5 14.5t-14.5 34.5t20 55q66 105 66 262q0 28 15.5 45t43.5 17q65 0 65 -72q0 -113 -54.5 -234.5t-104.5 -121.5zM129 977q-22 0 -36.5 14.5t-14.5 34.5t20 55q66 105 66 262q0 28 15.5 45t43.5 17q66 0 66 -72q0 -114 -55 -235t-105 -121z" />
    <glyph glyph-name="quotedblbase" unicode="&#x201e;" horiz-adv-x="655" 
d="M416 -262q-22 0 -36.5 14.5t-14.5 34.5t20 55q66 105 66 262q0 28 15.5 45t43.5 17q65 0 65 -72q0 -113 -54.5 -234.5t-104.5 -121.5zM129 -262q-22 0 -36.5 14.5t-14.5 34.5t20 55q66 105 66 262q0 28 15.5 45t43.5 17q66 0 66 -72q0 -114 -55 -235t-105 -121zM223 -20z
" />
    <glyph glyph-name="dagger" unicode="&#x2020;" horiz-adv-x="958" 
d="M541 930v-1100q0 -63 -62 -63q-61 0 -61 63v1100h-260q-66 0 -66 59q0 60 66 60h260v403q0 64 61 64q62 0 62 -64v-403h260q65 0 65 -60q0 -59 -65 -59h-260z" />
    <glyph glyph-name="daggerdbl" unicode="&#x2021;" horiz-adv-x="958" 
d="M541 971v-660h260q65 0 65 -59t-65 -59h-260v-363q0 -63 -62 -63q-61 0 -61 63v363h-260q-66 0 -66 59t66 59h260v660h-260q-66 0 -66 59q0 60 66 60h260v362q0 64 61 64q62 0 62 -64v-362h260q65 0 65 -60q0 -59 -65 -59h-260z" />
    <glyph glyph-name="bullet" unicode="&#x2022;" horiz-adv-x="965" 
d="M483 338q-135 0 -231 96t-96 230q0 135 96.5 231t230.5 96q133 0 229.5 -96t96.5 -231q0 -134 -95.5 -230t-230.5 -96z" />
    <glyph glyph-name="onedotenleader" unicode="&#x2024;" horiz-adv-x="999" 
d="M500 -20q-43 0 -72 29t-29 69q0 41 29 70.5t72 29.5q42 0 71 -29t29 -71q0 -39 -29.5 -68.5t-70.5 -29.5z" />
    <glyph glyph-name="twodotenleader" unicode="&#x2025;" horiz-adv-x="999" 
d="M743 -20q-39 0 -65.5 26.5t-26.5 65.5t26.5 66.5t65.5 27.5q41 0 68 -27t27 -67q0 -39 -27 -65.5t-68 -26.5zM254 -20q-39 0 -65.5 26.5t-26.5 65.5t26.5 66.5t65.5 27.5q40 0 67 -27t27 -67q0 -39 -27 -65.5t-67 -26.5z" />
    <glyph glyph-name="ellipsis" unicode="&#x2026;" horiz-adv-x="1204" 
d="M598 -20q-39 0 -65.5 26.5t-26.5 65.5t26.5 66.5t65.5 27.5q40 0 67 -27t27 -67q0 -39 -27 -65.5t-67 -26.5zM999 -20q-39 0 -65.5 26.5t-26.5 65.5t26.5 66.5t65.5 27.5q41 0 68 -27t27 -67q0 -39 -27 -65.5t-68 -26.5zM203 -20q-39 0 -65.5 26.5t-26.5 65.5t26.5 66.5
t65.5 27.5q40 0 67 -27t27 -67q0 -39 -27 -65.5t-67 -26.5z" />
    <glyph glyph-name="perthousand" unicode="&#x2030;" horiz-adv-x="2458" 
d="M420 598q-136 0 -217.5 111.5t-81.5 296.5q0 203 85 305t214 102t214 -102t85 -305q0 -187 -82.5 -297.5t-216.5 -110.5zM420 1300q-94 0 -139 -80.5t-45 -213.5q0 -125 45.5 -209t138.5 -84q89 0 136.5 80.5t47.5 212.5q0 137 -45.5 215.5t-138.5 78.5zM1348 1319
l-895 -1307q-22 -32 -47 -32q-21 0 -39.5 15.5t-18.5 31.5q0 14 7 24l909 1329q23 33 47 33q20 0 38.5 -15t18.5 -32t-20 -47zM1300 -20q-136 0 -217.5 112.5t-81.5 294.5q0 208 87.5 308t211.5 100q125 0 212 -99.5t87 -308.5q0 -185 -81.5 -296t-217.5 -111zM1300 682
q-94 0 -139 -82.5t-45 -212.5q0 -126 46.5 -209.5t137.5 -83.5q90 0 137.5 81.5t47.5 211.5q0 140 -46.5 217.5t-138.5 77.5zM2038 -20q-138 0 -218.5 112.5t-80.5 294.5q0 206 87 307t212 101t212 -100.5t87 -307.5q0 -183 -81 -295t-218 -112zM2038 682q-93 0 -139 -82
t-46 -213q0 -123 47 -208t138 -85q87 0 135.5 80t48.5 213q0 138 -46 216.5t-138 78.5zM1720 0z" />
    <glyph glyph-name="guilsinglleft" unicode="&#x2039;" horiz-adv-x="729" 
d="M243 550l382 -337q28 -25 28 -49q0 -17 -16 -39q-23 -23 -39 -23q-18 0 -49 23l-425 374q-29 26 -29 51q0 24 29 51l425 375q25 22 47 22q23 0 40 -21t17 -40q0 -21 -28 -49z" />
    <glyph glyph-name="guilsinglright" unicode="&#x203a;" horiz-adv-x="729" 
d="M92 125q-16 22 -16 39q0 25 28 49l382 337l-382 338q-28 25 -28 49q0 19 17.5 40t39.5 21t47 -22l425 -375q29 -26 29 -51q0 -29 -29 -51l-425 -374q-26 -23 -49 -23q-16 0 -39 23z" />
    <glyph glyph-name="uni2044" unicode="&#x2044;" horiz-adv-x="279" 
d="M627 1319l-895 -1307q-22 -32 -47 -32q-21 0 -39.5 15.5t-18.5 31.5q0 14 7 24l909 1329q23 33 47 33q20 0 38.5 -15t18.5 -32t-20 -47z" />
    <glyph glyph-name="zerosuperior" unicode="&#x2070;" horiz-adv-x="801" 
d="M401 541q-137 0 -212.5 119.5t-75.5 316.5q0 203 74.5 319.5t213.5 116.5q140 0 214.5 -116t74.5 -320q0 -198 -76 -317t-213 -119zM401 1307q-85 0 -129.5 -91.5t-44.5 -238.5q0 -165 43.5 -247.5t130.5 -82.5t130.5 82.5t43.5 247.5q0 149 -44 239.5t-130 90.5z" />
    <glyph glyph-name="foursuperior" unicode="&#x2074;" horiz-adv-x="791" 
d="M596 760v-148q0 -51 -55 -51q-52 0 -52 51v148h-284q-54 0 -80.5 20.5t-26.5 61.5q0 32 23 78l231 456q19 37 47 37q22 0 40 -13.5t18 -35.5q0 -19 -19 -51l-229 -451h280v293q0 53 52 53q55 0 55 -53v-293h43q51 0 51 -53q0 -49 -51 -49h-43z" />
    <glyph glyph-name="fivesuperior" unicode="&#x2075;" horiz-adv-x="795" 
d="M285 1067q42 18 94 18q129 0 204.5 -72.5t75.5 -201.5q0 -115 -82 -192.5t-200 -77.5q-86 0 -156.5 38.5t-70.5 73.5q0 22 15.5 39t37.5 17q14 0 39 -19q55 -47 135 -47q75 0 123.5 47.5t48.5 120.5q0 86 -43.5 129t-130.5 43q-53 0 -96 -18q-29 -11 -48 -11
q-53 0 -53 54q0 35 4 63l25 238q9 84 90 84h297q45 0 45 -52q0 -51 -45 -51h-262q-24 0 -27 -20z" />
    <glyph glyph-name="sixsuperior" unicode="&#x2076;" horiz-adv-x="803" 
d="M225 1010q77 86 185 86q115 0 184.5 -74.5t69.5 -192.5q0 -122 -76.5 -205t-192.5 -83q-133 0 -204.5 91.5t-71.5 266.5q0 257 90.5 385.5t271.5 128.5q64 0 96.5 -14t32.5 -41q0 -62 -44 -62q-10 0 -40 8t-53 8q-87 0 -160.5 -67.5t-87.5 -234.5zM403 993
q-74 0 -122 -46.5t-48 -112.5q0 -85 42.5 -138t119.5 -53q75 0 119.5 53t44.5 131q0 76 -42.5 121t-113.5 45z" />
    <glyph glyph-name="sevensuperior" unicode="&#x2077;" horiz-adv-x="670" 
d="M451 1290h-328q-45 0 -45 51q0 52 45 52h381q90 0 90 -84q0 -38 -41 -101q-95 -140 -174 -321.5t-90 -300.5q-4 -45 -49 -45q-58 0 -58 53q0 114 93 323.5t182 335.5q12 19 12 25q0 12 -18 12z" />
    <glyph glyph-name="eightsuperior" unicode="&#x2078;" horiz-adv-x="852" 
d="M567 1006q72 -32 108 -83.5t36 -123.5q0 -112 -80.5 -185t-204.5 -73q-123 0 -204 72.5t-81 185.5q0 72 36 123.5t108 83.5q-56 32 -83.5 77.5t-27.5 104.5q0 99 71.5 162t180.5 63t180.5 -63t71.5 -162q0 -59 -28 -104.5t-83 -77.5zM281 1184q0 -56 39 -91.5t106 -35.5
t106 35.5t39 91.5q0 59 -40 93t-105 34t-105 -34t-40 -93zM604 805q0 66 -47 107.5t-131 41.5t-131 -41.5t-47 -107.5q0 -74 45.5 -118t132.5 -44t132.5 44t45.5 118z" />
    <glyph glyph-name="ninesuperior" unicode="&#x2079;" horiz-adv-x="803" 
d="M578 944q-79 -86 -185 -86q-113 0 -183.5 73t-70.5 193q0 123 76.5 206t192.5 83q133 0 204.5 -91.5t71.5 -266.5q0 -257 -90.5 -385.5t-271.5 -128.5q-65 0 -97 13.5t-32 41.5q0 61 44 61q13 0 42 -8t53 -8q85 0 158.5 67.5t87.5 235.5zM408 1311q-75 0 -119.5 -53
t-44.5 -132q0 -74 42 -119.5t113 -45.5q75 0 122.5 47t47.5 112q0 84 -41.5 137.5t-119.5 53.5z" />
    <glyph glyph-name="parenleftsuperior" unicode="&#x207d;" horiz-adv-x="295" 
d="M168 563q-18 0 -37.5 26.5t-55 204t-35.5 324.5q0 148 35.5 325t55 203.5t37.5 26.5q23 0 44 -11t21 -26q0 -20 -12 -49q-30 -77 -51 -216t-21 -253q0 -113 21 -252t51 -217q12 -27 12 -49q0 -14 -20 -25.5t-45 -11.5zM126 1413zM156 684z" />
    <glyph glyph-name="parenrightsuperior" unicode="&#x207e;" horiz-adv-x="295" 
d="M128 563q-24 0 -45 11.5t-21 25.5q0 20 13 49q30 78 50.5 217t20.5 252q0 114 -20.5 253t-50.5 216q-13 31 -13 49q0 15 21.5 26t44.5 11q18 0 37.5 -26.5t54.5 -203.5t35 -325q0 -147 -35 -324.5t-54.5 -204t-37.5 -26.5zM137 684zM167 1413z" />
    <glyph glyph-name="nsuperior" unicode="&#x207f;" horiz-adv-x="756" 
d="M664 750q0 -54 -54 -54q-53 0 -53 54v387q0 86 -38 129t-113 43q-88 0 -142.5 -61t-54.5 -163v-335q0 -54 -53 -54q-54 0 -54 54v600q0 53 54 53q53 0 53 -53v-54q73 117 207 117q119 0 183.5 -69t64.5 -185v-409z" />
    <glyph glyph-name="zeroinferior" unicode="&#x2080;" horiz-adv-x="801" 
d="M401 -29q-137 0 -212.5 119.5t-75.5 316.5q0 203 74.5 319.5t213.5 116.5q140 0 214.5 -116t74.5 -320q0 -198 -76 -317t-213 -119zM401 737q-85 0 -129.5 -91.5t-44.5 -238.5q0 -165 43.5 -247.5t130.5 -82.5t130.5 82.5t43.5 247.5q0 149 -44 239.5t-130 90.5z" />
    <glyph glyph-name="oneinferior" unicode="&#x2081;" horiz-adv-x="791" 
d="M348 713l-98 -57q-36 -21 -51 -21q-25 0 -38.5 18t-13.5 38q0 27 37 47l160 90q28 16 51 16q64 0 64 -70v-667h123q55 0 55 -53q0 -54 -55 -54h-369q-55 0 -55 52q0 55 55 55h135v606z" />
    <glyph glyph-name="twoinferior" unicode="&#x2082;" horiz-adv-x="793" 
d="M246 107h336q55 0 55 -51q0 -56 -55 -56h-334q-55 0 -82 24.5t-27 74.5q0 68 38 132.5t208 188.5q77 54 112 100t35 99q0 54 -33 87.5t-102 33.5q-70 0 -141 -56q-25 -18 -43 -18q-20 0 -35.5 17t-15.5 38q0 39 80.5 81t160.5 42q116 0 179 -58.5t63 -160.5
q0 -72 -40 -134.5t-161 -152.5q-88 -65 -124 -97t-55 -66t-19 -68z" />
    <glyph glyph-name="threeinferior" unicode="&#x2083;" horiz-adv-x="791" 
d="M510 716h-311q-52 0 -52 53q0 54 52 54h331q48 0 72.5 -19t24.5 -57q0 -21 -15 -50.5t-45 -68.5l-114 -143q98 -20 147 -81.5t49 -164.5q0 -113 -82.5 -190.5t-201.5 -77.5q-95 0 -163.5 38t-68.5 70q0 23 16 41.5t39 18.5q14 0 39 -17q40 -27 66 -36t69 -9
q76 0 126.5 45.5t50.5 116.5q0 77 -42.5 117.5t-142.5 40.5q-45 0 -45 47q0 24 23 49q128 157 178 223z" />
    <glyph glyph-name="fourinferior" unicode="&#x2084;" horiz-adv-x="791" 
d="M596 193v-148q0 -51 -55 -51q-52 0 -52 51v148h-284q-54 0 -80.5 20.5t-26.5 61.5q0 32 23 78l231 456q19 37 47 37q22 0 40 -13.5t18 -35.5q0 -19 -19 -51l-229 -451h280v293q0 53 52 53q55 0 55 -53v-293h43q51 0 51 -53q0 -49 -51 -49h-43z" />
    <glyph glyph-name="fiveinferior" unicode="&#x2085;" horiz-adv-x="795" 
d="M285 497q42 18 94 18q129 0 204.5 -72.5t75.5 -201.5q0 -115 -82 -192.5t-200 -77.5q-86 0 -156.5 38.5t-70.5 73.5q0 22 15.5 39t37.5 17q14 0 39 -19q55 -47 135 -47q75 0 123.5 47.5t48.5 120.5q0 86 -43.5 129t-130.5 43q-53 0 -96 -18q-29 -11 -48 -11q-53 0 -53 54
q0 35 4 63l25 238q9 84 90 84h297q45 0 45 -52q0 -51 -45 -51h-262q-24 0 -27 -20z" />
    <glyph glyph-name="sixinferior" unicode="&#x2086;" horiz-adv-x="803" 
d="M225 440q77 86 185 86q115 0 184.5 -74.5t69.5 -192.5q0 -122 -76.5 -205t-192.5 -83q-133 0 -204.5 91.5t-71.5 266.5q0 257 90.5 385.5t271.5 128.5q64 0 96.5 -14t32.5 -41q0 -62 -44 -62q-10 0 -40 8t-53 8q-87 0 -160.5 -67.5t-87.5 -234.5zM403 423
q-74 0 -122 -46.5t-48 -112.5q0 -85 42.5 -138t119.5 -53q75 0 119.5 53t44.5 131q0 76 -42.5 121t-113.5 45z" />
    <glyph glyph-name="seveninferior" unicode="&#x2087;" horiz-adv-x="670" 
d="M451 720h-328q-45 0 -45 51q0 52 45 52h381q90 0 90 -84q0 -38 -41 -101q-95 -140 -174 -321.5t-90 -300.5q-4 -45 -49 -45q-58 0 -58 53q0 114 93 323.5t182 335.5q12 19 12 25q0 12 -18 12z" />
    <glyph glyph-name="eightinferior" unicode="&#x2088;" horiz-adv-x="852" 
d="M567 436q72 -32 108 -83.5t36 -123.5q0 -112 -80.5 -185t-204.5 -73q-123 0 -204 72.5t-81 185.5q0 72 36 123.5t108 83.5q-56 32 -83.5 77.5t-27.5 104.5q0 99 71.5 162t180.5 63t180.5 -63t71.5 -162q0 -59 -28 -104.5t-83 -77.5zM281 614q0 -56 39 -91.5t106 -35.5
t106 35.5t39 91.5q0 59 -40 93t-105 34t-105 -34t-40 -93zM604 235q0 66 -47 107.5t-131 41.5t-131 -41.5t-47 -107.5q0 -74 45.5 -118t132.5 -44t132.5 44t45.5 118z" />
    <glyph glyph-name="nineinferior" unicode="&#x2089;" horiz-adv-x="803" 
d="M578 374q-79 -86 -185 -86q-113 0 -183.5 73t-70.5 193q0 123 76.5 206t192.5 83q133 0 204.5 -91.5t71.5 -266.5q0 -257 -90.5 -385.5t-271.5 -128.5q-65 0 -97 13.5t-32 41.5q0 61 44 61q13 0 42 -8t53 -8q85 0 158.5 67.5t87.5 235.5zM408 741q-75 0 -119.5 -53
t-44.5 -132q0 -74 42 -119.5t113 -45.5q75 0 122.5 47t47.5 112q0 84 -41.5 137.5t-119.5 53.5z" />
    <glyph glyph-name="parenleftinferior" unicode="&#x208d;" horiz-adv-x="295" 
d="M168 -104q-18 0 -37.5 26.5t-55 204t-35.5 324.5q0 148 35.5 325t55 203.5t37.5 26.5q23 0 44 -11t21 -26q0 -20 -12 -49q-30 -77 -51 -216t-21 -253q0 -113 21 -252t51 -217q12 -27 12 -49q0 -14 -20 -25.5t-45 -11.5zM126 746zM156 17z" />
    <glyph glyph-name="parenrightinferior" unicode="&#x208e;" horiz-adv-x="295" 
d="M128 -104q-24 0 -45 11.5t-21 25.5q0 20 13 49q30 78 50.5 217t20.5 252q0 114 -20.5 253t-50.5 216q-13 31 -13 49q0 15 21.5 26t44.5 11q18 0 37.5 -26.5t54.5 -203.5t35 -325q0 -147 -35 -324.5t-54.5 -204t-37.5 -26.5zM137 17zM167 746z" />
    <glyph glyph-name="colonmonetary" unicode="&#x20a1;" horiz-adv-x="1190" 
d="M629 -18l-29 -125q-10 -41 -49 -41q-55 0 -55 39q0 14 4 26l26 117q-75 18 -137 53l-45 -194q-10 -41 -49 -41q-55 0 -55 39q0 14 4 26l55 238q-104 96 -155.5 240.5t-51.5 336.5q0 284 137.5 477t376.5 232l29 129q9 37 41 37q63 0 63 -37q0 -15 -4 -31l-24 -90
q106 -5 149 -16l31 137q9 37 41 37q63 0 63 -37q0 -15 -4 -31l-35 -137q73 -32 109.5 -64t36.5 -63q0 -26 -19 -44.5t-39 -18.5t-63 30q-27 18 -55 33l-269 -1139h25q87 0 171 32t165 97q28 23 51 23t37 -19t14 -40q0 -49 -136 -131t-304 -82q-29 0 -51 2zM422 184
q60 -46 133 -67l276 1159q-58 16 -129 16h-20zM336 272l239 1004q-166 -46 -260 -201.5t-94 -378.5q0 -131 28.5 -237t86.5 -187z" />
    <glyph glyph-name="Euro" unicode="&#x20ac;" horiz-adv-x="1219" 
d="M401 492q35 -191 133 -291.5t242 -100.5q72 0 127 15.5t133 62.5q33 21 54 21q26 0 38.5 -19t12.5 -39q0 -49 -112 -105t-255 -56q-203 0 -334.5 133.5t-169.5 378.5h-133q-65 0 -65 59t65 59h121q-2 29 -2 80q0 58 6 113h-125q-65 0 -65 59q0 60 65 60h144
q53 230 194.5 360.5t329.5 130.5q123 0 221 -50.5t98 -96.5q0 -25 -16.5 -44.5t-42.5 -19.5q-13 0 -22.5 4t-43.5 25q-98 61 -198 61q-139 0 -241.5 -97t-147.5 -273h495q66 0 66 -56q0 -63 -66 -63h-516q-6 -55 -6 -113q0 -51 2 -80h422q65 0 65 -51q0 -67 -65 -67h-408z
" />
    <glyph glyph-name="afii61352" unicode="&#x2116;" horiz-adv-x="1980" 
d="M1094 96q0 -45 -29.5 -73.5t-77.5 -28.5q-62 0 -94 57l-588 1192v-1186q0 -63 -59 -63q-62 0 -62 63v1231q0 55 26.5 83t80.5 28q69 0 96 -56l586 -1189v1181q0 64 59 64q62 0 62 -64v-1239zM1583 719q-141 0 -222 96.5t-81 249.5q0 162 81 255t222 93q146 0 224.5 -92
t78.5 -256q0 -154 -82 -250t-221 -96zM1583 1303q-94 0 -141 -59.5t-47 -178.5q0 -106 51 -172t137 -66q88 0 139.5 65.5t51.5 172.5q0 111 -50 174.5t-141 63.5zM1800 520h-411q-64 0 -64 58q0 57 64 57h411q64 0 64 -57q0 -58 -64 -58z" />
    <glyph glyph-name="trademark" unicode="&#x2122;" horiz-adv-x="1663" 
d="M1475 627q0 -60 -58 -60q-53 0 -53 60v571l-186 -326q-27 -47 -66 -47q-28 0 -42.5 13.5t-25.5 31.5l-186 328v-571q0 -60 -55 -60q-31 0 -43 14.5t-12 45.5v690q0 32 15.5 57t53.5 25q44 0 70 -47l225 -400l225 400q26 47 70 47q37 0 52.5 -25t15.5 -57v-690zM371 1288
v-661q0 -60 -58 -60q-57 0 -57 60v661h-174q-59 0 -59 53q0 56 59 56h463q59 0 59 -56q0 -53 -59 -53h-174z" />
    <glyph glyph-name="uni2126" unicode="&#x2126;" horiz-adv-x="1573" 
d="M496 160q-108 67 -165 130q-87 96 -134 225.5t-47 286.5q0 196 79.5 360.5t231 252.5t347.5 88q336 0 516 -254q131 -186 131 -448q0 -168 -54 -297.5t-141 -222.5q-53 -58 -149 -121l364 6v-166h-575v177q80 40 124 78q72 61 122 145t75.5 179t25.5 198
q0 138 -49.5 277.5t-150 212.5t-243.5 73q-191 0 -296 -120q-146 -169 -146 -440q0 -217 91 -372.5t251 -227.5v-180h-577v168z" />
    <glyph glyph-name="onethird" unicode="&#x2153;" horiz-adv-x="1769" 
d="M348 1282l-98 -57q-36 -21 -51 -21q-25 0 -38.5 18t-13.5 38q0 27 37 47l160 90q28 16 51 16q64 0 64 -70v-667h123q55 0 55 -53q0 -54 -55 -54h-369q-55 0 -55 52q0 55 55 55h135v606zM1389 1319l-895 -1307q-22 -32 -47 -32q-21 0 -39.5 15.5t-18.5 31.5q0 14 7 24
l909 1329q23 33 47 33q20 0 38.5 -15t18.5 -32t-20 -47zM1489 716h-311q-52 0 -52 53q0 54 52 54h331q48 0 72.5 -19t24.5 -57q0 -21 -15 -50.5t-45 -68.5l-114 -143q98 -20 147 -81.5t49 -164.5q0 -113 -82.5 -190.5t-201.5 -77.5q-95 0 -163.5 38t-68.5 70q0 23 16 41.5
t39 18.5q14 0 39 -17q40 -27 66 -36t69 -9q76 0 126.5 45.5t50.5 116.5q0 77 -42.5 117.5t-142.5 40.5q-45 0 -45 47q0 24 23 49q128 157 178 223z" />
    <glyph glyph-name="twothirds" unicode="&#x2154;" horiz-adv-x="1769" 
d="M246 676h336q55 0 55 -51q0 -56 -55 -56h-334q-55 0 -82 24.5t-27 74.5q0 68 38 132.5t208 188.5q77 54 112 100t35 99q0 54 -33 87.5t-102 33.5q-70 0 -141 -56q-25 -18 -43 -18q-20 0 -35.5 17t-15.5 38q0 39 80.5 81t160.5 42q116 0 179 -58.5t63 -160.5
q0 -72 -40 -134.5t-161 -152.5q-88 -65 -124 -97t-55 -66t-19 -68zM1389 1319l-895 -1307q-22 -32 -47 -32q-21 0 -39.5 15.5t-18.5 31.5q0 14 7 24l909 1329q23 33 47 33q20 0 38.5 -15t18.5 -32t-20 -47zM1489 716h-311q-52 0 -52 53q0 54 52 54h331q48 0 72.5 -19
t24.5 -57q0 -21 -15 -50.5t-45 -68.5l-114 -143q98 -20 147 -81.5t49 -164.5q0 -113 -82.5 -190.5t-201.5 -77.5q-95 0 -163.5 38t-68.5 70q0 23 16 41.5t39 18.5q14 0 39 -17q40 -27 66 -36t69 -9q76 0 126.5 45.5t50.5 116.5q0 77 -42.5 117.5t-142.5 40.5q-45 0 -45 47
q0 24 23 49q128 157 178 223z" />
    </font>
</defs>
</svg>
